アットウィキロゴ

OMAKENO Stroke

アーティスト t+pazolite

BPM BASIC ADVANCED EXPERT MASTER Re:MASTER
240 5 8 11+ 13+ -

EXPERT MASTER Re:MASTER
譜面制作者 アマリリス Luxizhel -

BASIC


ADVANCED


EXPERT

(240)
{1},

{1}8x>4v7<6[4:5],
{1},

{4}2x/8x,2hx[2:1]/8hx[4:1],{2},
{4}68,6h[2:1]/8h[4:1],{2},
{4}28,2h[2:1]/8h[4:1],{2},
{2}68,35,
{4}28,2h[2:1]/8h[4:1],{2},
{4}68,6h[2:1]/8h[4:1],{2},
{2}35,28,
{1}5bh[2:1]/7b-3[4:1],

{4}12,12,34,34,
{4}56,56,{2}47,
{4}78,78,56,56,
{4}34,34,{2}25,
{8}7x/8x,,,1x/8x,,,{4}1x/2x,
{2}3x/8x,{8}5x/6x,,,4bx/7bx>5[8:7],
{1},
{1}C,

{2}6h[4:3],{4},5,
{2}5h[4:3],{4},4,
{2}4h[4:3],{4},3,
{2}3h[2:1],2,

{8}3hx[8:1]/4hx[8:1],,,3hx[8:1]/4hx[8:1],,,{4}2-8[4:1]/5,
{2},7,
{8}5hx[8:1]/6hx[8:1],,,5hx[8:1]/6hx[8:1],,,{4}4-2[4:1]/7,
{2},8,
{8}7hx[8:1]/8hx[8:1],,,7hx[8:1]/8hx[8:1],,,{4}1/6-4[4:1],
{2},3,
{8}1hx[8:1]/2hx[8:1],,,1hx[8:1]/2hx[8:1],,,{4}3-5[4:1]/8-6[4:1],
{1},

{2}34,56,
{2}24,57,
{4}12,12,78,78,
{1}1/6V48b[2:1],

{4}3h[4:1],{8}1,1h[4:1],,8,{4}8h[4:1],
{4}6,5,34,25,
{4}2h[4:1],{8}4,4h[4:1],,5,{4}5h[4:1],
{4}7,8,{2}17,
{4}7h[4:1],{8}5,5h[4:1],,4,{4}4h[4:1],
{4}2,1,78,16,
{4}6h[4:1],{8}8,8h[4:1],,1,{4}1h[4:1],
{1}2-5b[4:1],

{4}6h[4:1],{8}8,8h[4:1],,1,{4}1h[4:1],
{4}3,4,56,47,
{4}7h[4:1],{8}5,5h[4:1],,4,{4}4h[4:1],
{4}2,1,{2}28,
{4}18,{8}23,23,,45,{4}45,
{8}67,67,,18,{4}18,27,
{8}1x,8x,1x,8x,2x,7x,2x,7bx-3b[4:1],
{1},

{1}D4,
{1}A2,
{1}D1,
{1}A7,
{1}D6,
{1}A4,
{1}B1/B8,
{1},

{8}6h[8:3],,,5h[8:3],,,{4}4<7[2:1],
{1},
{8}3h[8:3],,,4h[8:3],,,{4}5>2[2:1],
{1},
{8}6h[8:3],,,7h[8:3],,,{4}8,
{2}8h[2:1],2>6[4:3],
{1},
{1},

{1}5hx[4:3]/7hx[4:3],
{4},{8}4x/5x,,,3x/4x,,,
{1}2hx[4:3]/4hx[4:3],
{4},{8}4x/5x,,,5x/6x,,,
{1}7-5[4:1]/8h[2:1],
{1}1h[2:1]/2-4[4:1],
{1}1-4[4:1]/8-5[4:1],
{1}2b/7b,

{4}12,34,56,78,
{4}2h[4:1],4h[4:1],6h[4:1],7,
{4}78,56,34,12,
{1}3-6[4:1]/8-5[4:1],
{4}78,56,34,12,
{4}7h[4:1],5h[4:1],3h[4:1],2,
{4}12,34,56,78,
{1}1-6b[4:1]/2-5b[4:1],

{4}56,78,12,34,
{4}6h[4:1],8h[4:1],2h[4:1],3,
{4}34,12,78,56,
{1}4-1[4:1]/7-2[4:1],
{4}34,12,78,56,
{4}3h[4:1],1h[4:1],8,27,
{8}3,6,3,6,2,7,2,7,
{1}1bx/8bx,

{4}34,{8}12,12,,56,{4}56,
{4}78,34,12,38,
{4}56,{8}78,78,,34,{4}34,
{4}12,56,{8}47,47,{4},
{4}2h[4:1],{8}4,4h[4:1],,5,{4}5h[4:1],
{4}7,18,{8}27,27,,3h[8:9]/6,
{4},8,1,2q4[2:1],
{1},

{4}12,34,56,{8}78,78,
{4}78,56,34,{8}12,12,
{4}12,34,56,{8}17,17,
{4}17,56,{2}4-8[4:1],
{8}7,7,1,1,6,6,2,2,
{8}5,5,3,3,4,4x>5b[8:5],{4},
{1},
{1}1bx/8bx,

{1}3<6[4:5],
{1},
{1}7<4[4:5],
{1},
{1}3>4[4:7],
{1},
{1}C,
E

MASTER

(240)
{1},
{4}2b/7b,Chf[4:1]/B6/B5/B4/B3,,,
{16}1x,2x,3x,4x,5x,6x,7x,8x,1x,2x,3x,4x,5x,6x,7x,8x,
{4}1x-5[8:1],1/7,,,
7-4[8:1],1/7,,,
2-6[8:1],2/8,,,
4/6,1/7,3/5,2b,2-5[8:1]/8-4[8:1],2/8,,,
1-5[8:1]/7-4[8:1],1/7,,,
1-3[8:1]/8-6[8:1],1/8,1-5[8:1]/8-4[8:1],1/8,
{8}8,8,6,6,4,,
{4}2b,8/4,
{8}2,1,{4}2-4[8:1],
{4}8-6[8:1],1-5[8:1],5,8,3/7,1/5,
{8}7,8,{4}7-5[8:1],
1-3[8:1],8,4,
{8}3/5,3/5,,,
{4}1/7,
{8}6,5,6,,
{4}2/4,1/7,4/6,
{8}4,5,4,5,
{16}3x,6x,3x,6x,3x,6x,3x,6x,2x,7x,2x,7x,2x,7x,2x,7x,1b/8b,,,,,,,,
{4},,5/3qq8[4:5],,,,,,,,
2/8qq5[4:5],,,,,,,,3h[4:1]/4h[4:1],{8},4/3V51[8:5],{4},,,,7,7,5h[4:1]/6h[4:1],{8},5/6V48[8:5],{4},,,,2,2,3h[2:1]/7-4[4:1],,,,
2h[4:1]/4-8[4:1],,1,1,6h[2:1]/2-5[4:1],,,,7h[4:1]/5-1[8:1],,8,7,7-5[8:1]/1,1,2-4[8:1]/8,8,7-4[8:1]/1,1,2-5[8:1]/8,6,46,25,48,26,
{8}1,1,1,1,1w5[4:1],,1b,,
{4}2x-5[8:1],{8}2,8-4[8:1],,8,{4}1,
{8}2,2,3,3,4,4,45,,
{4}6-1[8:1],{8}6,4-8[8:1],,4,{4}5,{8}6,6,7,7,8,,
{4}1b,7-4[8:1],{8}7,1-5[8:1],,1,{4}8,{8}7,7,5,5,6,6,64,,
{4}3-1[8:1],{8}3,5-7[8:1],,5,{4}4,2hbx[8:1]/8hbx[8:1],5hbx[8:1]/6hbx[8:1],1hbx[8:1]/7hbx[8:1],3hbx[8:1]/4hbx[8:1],2-5[8:1],{8}2,6-1[8:1],,6,{4}2,
{8}2h[8:1],4h[8:1],3h[8:1],5h[8:1],4h[8:1],6h[8:1],5,,
{4}6-1[8:1],{8}6,3-8[8:1],,3,{4}7,
{8}6,6,4,4,5,,
{4}28,2-5[8:1],{8}2,6-8[8:1],,6,{4}3-1[8:1],{8}3,7-4[8:1],,7,{4}1-5[8:1],1,
{8}4x/8x,4x/8x,3x/7x,3x/7x,2x/6x,2x/6x,5x/1x,5x/1pp4[8:7]*qq6[8:7],
{4},,,,,,,,7hx[1:5],,,,B5/B4,,,,E2/B2/E3,,,,E1/B8/E8,,,,B7/E7/B6,,B3/E4/B4,,
1x>7[4:5],,,,,,,,{8}7x,5,6,4,5,3,4,2,,E8,E1,E7,E2,E6,E3,E5,,2x,4,3,5,4,6,5,,E2,E1,E3,E8,E4,E7,E5,,7x,8,6,1,5,2,4,,E6,E5,E7,E4,E8,E3,E1,,2x,8,3,7,4,6,6h[8:1],,4x,6,3,7,2,8,1x,1hx[1:1],,,,,,,,
{4},2h[4:1]/8h[4:1],{8},3h[4:1]/7h[4:1],{4},4h[1:1]/6h[1:1],,,,,4hx[8:2],{8},3h[4:1]/5h[4:1],{4},6h[4:3]/2,2,2,2,4h[4:3]/8,8,8,8,5h[4:1]/3,3,1h[4:1]/7,7,3b,1b,7b,5b,
{8}3b,4,1,8,5,6,1,8,3,4,2,8,5,7,2,1,3,5,1,7,4,6,1,8,2V46[4:1],,6V82[4:1],,2,,6,,6,5,8,2,4,3,7,1,6,4,1,3,4,2,6,3,8,5,7,4,6,3,5,2,18,,45,,
{4}1-5[8:1]/8-4[8:1],,2-5[16:1],8-4[16:1],1-5[16:1],7-4[16:1],3-8[16:1],6-1[16:1],3-5[16:1],8,37,
{8}8,2,8,,
{4}46,12,56,1-5[8:1]/2-6[8:1],12,3-6[16:1],7-1[16:1],2-5[16:1],6-1[16:1],2,34,8h[4:1]/6,{8}5,5,8x,4x,1,5,2,6,3,7,4x,4,4x,4,4xw8[8:1],,4b,,1x/7x,,2,1,2-5[8:1],,2/7-4[8:1],,71,,
{4}5/3>8[16:1]b,6h[4:1],1x,37,
{8}7,8,7-4[8:1],,7/1-5[8:1]b,,7h[4:1],,3,,2-4[8:1]/6-4[8:1],,26,,3x/7x,,2,1,2-5[8:1],,2/7-4[8:1],,{4}17,2,{8}51,5/1-5[8:1],,
{8}1/7h[8:7],,,
{4}6,3,8,1x/7x,24,57,4/2-5[8:1],2/8-4[8:1],8/1x-5[8:1],1/7-4[8:1],7/2-5[8:1],28,4x/6x,
{16}18,,18,27,36,,,,
{4}2x/7x-4[8:1],7x/3-1[8:1],3x/5-7[8:1],5x/2x-4[8:1],2x/8x-6[8:1],8,5x/1,51,{8}2/8x,
{8}3,4x/8,7,1/6x,2,7/3x,6,3/5x,2,6/1x,7,4/8x,3,2x/7x,2x/7x,
{16}1,8,1,8,1,8,1,8,
{32}1x,2x,3x,4x,5x,6x,7x,8x,1bx,2bx,3bx,4bx,5bx,6bx,7bx,8bx,1bx/Cf,,,,,,,,,,,,,,,,,,,,,,,,,,,,,,,,,,,,,,,,
{4}2>7[4:6],,,{8}E6,,B6,,,,B7,,,,{4}8<4[4:6],,,{8}B7,,B5,,,,E1,,E2,,{4}3>7[4:5],,,B4,B6,,C1,,B7/E7/B6/C1/B2/E3/B3,
E

Re:MASTER


名前:
コメント:

タグ:

+ タグ編集
  • タグ:
最終更新:2026年02月02日 11:22