アットウィキロゴ

『んっあっあっ。』

アーティスト SLAVE.V-V-R

BPM BASIC ADVANCED EXPERT MASTER Re:MASTER
123 2 6 9 12+ -

EXPERT MASTER Re:MASTER
譜面制作者 アマリリス はっぴー -

BASIC


ADVANCED


EXPERT


MASTER

(123)
{4}8hx[4:5],,6hx[4:3],,,,
{8}5,5,4,4,6,6,3,3,5,5,4,4,6,6,5,5,4,4,3,3,5,5,4,4,6,6,4>5[4:1]/5<4[4:1],,,,,,
{4}3h[8:1]/5h[8:1],3h[8:1]/5h[8:1],4h[8:1]/6h[8:1],4h[8:1]/6h[8:1],
{4}A5/E6/D6/A3/E3/D3,A4/E4/D4/A6/E7/D7,A5/E6/D6/A3/E3/D3,A4/E4/D4/A6/E7/D7,
{4}4h[8:1]/6h[8:1],4h[8:1]/6h[8:1],3h[8:1]/5h[8:1],3h[8:1]/5h[8:1],
{4}A4f/E4/D4/A6/E7/D7,A5f/E6/D6/A3/E3/D3,A4f/E4/D4/A6/E7/D7,
{4}2b/8hb[4:7],6h[4:6],,,,,,,
{4}4h[4:8]/8p3[8:1],8,8p3[8:1],8,8p3[8:1],8,8p3[8:1],8,
{8}8hb[4:7],,6,6,5,5,6,6,5,5,6,6,5,5,6,6,
{4}5h[4:8]/8p3[8:1],8,8p3[8:1],8,8p3[8:1],8,8p3[8:1],8,8,
{8}5x/7x,2hx[8:5]/4hx[8:5],,,,,,,
{8}A8/B8/E8f/B7/A7,A5/B5/E6/D6/A6,A1/B1/E2f/B2/A2,A4/B4/E4/D4/A3,3bx/6bx,,
{8}1/8,,5/7,3/4,1-4[8:1]/2-4[8:1],,1<6[8:1]/2q6[8:1],,,,
{8}7/8,6,5-8[8:1]/6-8[8:1],,5>2[8:1]/6q2[8:1],,,,
{8}3/4-8[8:1],3,2,2,
{16}1h[16:3],,,3h[16:3],,,4,,
{8}2h[8:1]/5h[8:1],,3h[8:1]/7h[8:1],,4q8[8:1]/6p2[8:1],3x/7x,4x/6x,,
{8}2/4,5/6,7-5[8:1]/8-5[8:1],,7p3[8:1]/8>3[8:1],,,,
{8}1/2,3,3-1[8:1]/4-1[8:1],,3p7[8:1]/4<7[8:1],,,,
{8}6/5-1[8:1],6,7,7,
{16}8h[16:3],,,6h[16:3],,,5,,
{8}4h[8:1]/7h[8:1],,2h[8:1]/6h[8:1],,3q7[8:1]/5p1[8:1],2x/6x,3x/5x,,
{8}4bx/6bx,4bx/6bx,4bx/6bx,4bx/6bx,5bx/3bx,5bx/3bx,5bx/3bx,5bx/3bx,
{4}C/B4/B5,3h[8:1]/7h[8:1],2>5[8:1]/6<1[8:1],2b/6b,
{4}B3/B7,B2/B6,B4/E4/B8/E8,B1/E2/B5/E6,B3/E4/A4/B7/E8/A8,B6/E6/A5/B2/E2/A1,
{4}D4/A4/E5/E1/A8/D8,D2/A1/D1/D5/A5/D6,D4/A4/E5/E1/A8/D8,D2/A1/D1/D5/A5/D6,
{4}B3/E4/A4/B7/E8/A8,B6/E6/A5/B2/E2/A1,B4/E4/B8/E8,B1/E2/B5/E6,B3/B7,B2/B6,
{4}E4/E7,E3/E6,B3/E4/B7/E8,B2/E2/B6/E6,A3/E4/B4/A7/E8/B8,A6/E6/B5/A2/E2/B1,
{4}A4/E5/B4/A8/E1/B8,D1/A1/B1/D5/B5/A5,A4/E5/B4/A8/E1/B8,D1/A1/B1/D5/B5/A5,
{4}A3/E4/B4/A7/E8/B8,A6/E6/B5/A2/E2/B1,B3/E4/B7/E8,B2/E2/B6/E6,4-1[8:1]/5-8[8:1],,
{16}6>3[8:1],,,3,,,2,,2>5[8:1],,,6,,,7,,7<4[8:1],,,4,,,3,,
{16}3<6[8:1],,,7,,,8,,8<5[8:1],,,3,,,1,,1>4[8:1],,,6,,,8,,
{16}8<5[8:1],,,4,,,3,,
{8}3h[4:1],,4x,,2/4,{24}3,,3,{8}5,5/7,5/7,{24}6,,6,
{8}4,2/4,2/4,{24}3,,3,{8}5,5/7,5/7,{24}6,,6,
{8}4,3/4,3/4,{24}2,,2,{8}1,1/8,1/8,{24}7,,7,
{8}8,1/8,1/8,{24}2,,2,{8}1,1/8,1/8,{24}7,,7,
{8}8,1/8,1/8,{24}2,,2,{8}4,4/6,4/6,{24}7,,7,
{8}5,4/6,4/6,{24}3,,3,{8}5,2/6,
{24}3x,5,3,5,3,5,3x,5,3,5,3,5,2x,6,2,6,2,6,2x,6,2,6,2,6,
{24}1x-5[8:1]b,7,1,7,1,7,,,,,,,
{16}8h[16:3],,,6h[16:3],,,5,,{8}5<8[8:1],,3/5,2,
{16}1h[16:3],,,3h[16:3],,,4,,{8}4>1[8:1],,4/6,7,
{16}8h[16:3],,,6h[16:3],,,5,,{8}5<8[8:1],,3/5,2,
{4}1h[4:1],4,2q6[8:1]/5-8[8:1],2/5,
{8}6x/8x,6hx[8:5]/8hx[8:5],,,,,,,1b/7b,3b/4b,2b/8b,5b/6b,3b/7b,,
{4}6h[4:7]/Ch[4:7],,,B7,,B7,,,1x/8x,
{8}1-4[8:1]/2-4[8:1],8,1V73[16:5]/2-6-4[16:5],,1/2,,E5f,,
{8}7-5[8:1]/8-5[8:1],1,7-3-5[16:5]/8V26[16:5],,7/8,,E5f,,
{8}5/6-8[8:1],4,3pp6[8:3],3,8h[4:2],,,,5,3,1h[8:1],4,
{8}3q7[8:1]/5p1[8:1],2/6,3/5,,
{8}7x-5[8:1]/8x-5[8:1],1,7-3-5[16:5]/8V26[16:5],,7/8,,E5f,,
{8}1-4[8:1]/2-4[8:1],8,1V73[16:5]/2-6-4[16:5],,1/2,,E5f,,
{8}4/3-1[8:1],5,6qq3[8:3],6,1h[4:2],,,,4,6,8h[8:1],5,
{8}4q8[8:1]/6p2[8:1],3/7,4/6,,
{8}5bx/3bx,5bx/3bx,5bx/3bx,5bx/3bx,4bx/6bx,4bx/6bx,4bx/6bx,4bx/6bx,
{4}C/B4/B5,3h[8:1]/7h[8:1],2>5[8:1]/6<1[8:1],2b/6b,
{8}5bx/3bx,5bx/3bx,5bx/3bx,5bx/3bx,4bx/6bx,4bx/6bx,4bx/6bx,4bx/6bx,
{4}C/B4/B5,3>8[8:1]/7<4[8:1],3b/7b,2h[8:5]/6h[8:5],,,,4b/5bh[4:16],
{32}1x,2x,3x,4x,,6x,7x,8x,1x,2x,3x,4x,,6x,7x,8x,1x,2x,3x,4x,,6x,7x,8x,
{32}1x,2x,3x,4x,,6x,7x,8x,1x,2x,3x,4x,,6x,7x,8x,1x,2x,3x,4x,,6x,7x,8x,
{32}1x,2x,3x,4x,,6x,7x,8x,1x,2x,3x,4x,,6x,7x,8x,1x,2x,3x,4x,,6x,7x,8x,
{32}1x,2x,3x,4x,,6x,7x,8x,1x,2x,3x,4x,,6x,7x,8x,1x,2x,3x,4x,,6x,7x,8x,
{32}1bx,2bx,3bx,4bx,,6bx,7bx,8bx,1bx,2bx,3bx,4bx,,6bx,7bx,8bx,1bx,2bx,3bx,4bx,,6bx,7bx,8bx,1bx,,,,,,,,
{16}5h[16:3],,,7h[16:3],,,8,,{8}8<5[8:1],,2/8,3,
{16}4h[16:3],,,2h[16:3],,,1,,{8}1>4[8:1],,1/7,6,
{16}5h[16:3],,,7h[16:3],,,8,,
{4}8,1-5[8:1]/8-6[8:1],1-3[8:1]/8-4[8:1],1/8,A2/B2/Chf[4:1]/B7/A7,
E

Re:MASTER


名前:
コメント:

タグ:

+ タグ編集
  • タグ:
最終更新:2026年01月31日 22:09