| アーティスト |
Shoichiro Hirata feat.Sana |
EASY
BASIC
(133){1},,,,{2}1,1,1,,1-5[4:3],,,,8,8,8,,8-4[4:3],,,,
3,3,3,,4,4,45,,5,5,5,,6-2[4:3],,,,1,1,12,,8,8,78,,6,6,6,,5h[2:1]/6h[2:1],,4h[2:1]/3h[2:1],,5,5,64,,4,4,35,,5,5,6,6,7,7,8b/1b,,{4}1,1,1,,1,1,1,,2,2,2,,2,2,2,,34,,34,,56,,56,,4,5,4,,5h[2:1]/4h[2:1],,,,5,5,5,,5,5,5,,6,6,6,,6,6,6,,87,,87,,12,,12,,18,,18,,{1}2b/7b,1-5[4:3],,8-4[4:3],,1h[2:1]/2h[2:1],8h[2:1]/7h[2:1],1-4[4:3],,,,,,,{4}4,,4,,5,,5,,4h[8:7]/5h[8:7],,,,,,,,5,5,5,,6,6,56,,7,7,7,,8,8,81,,12,,12,,87,,87,,81,,81,,2b/7b,,,,8-5[4:5]/1-4[4:5],E
ADVANCED
EXPERT
MASTER
(133){4}3<6[4:1],6v3[4:1],3<6[4:1],6v3[8:5]*<8[8:2]*<1[8:3]*<2[8:4]*<3[8:5],,,,,6>3[4:1],3v6[4:1],6>3[4:1],3v6[8:5]*>1[8:2]*>8[8:3]*>7[8:4]*>6[8:5],,,,8b,2-7[8:1],6-3[8:1],2-5[8:1],6-1[8:1],3<6[8:1],8<3[4:1],,,2-5[8:1]/4v1[8:1],,7-4[8:1]/5v8[8:1],,2-5[8:1]/4v1[8:1],,7-4[8:1]/5v8[8:1],,7-2[8:1],3-6[8:1],7-4[8:1],3-8[8:1],6>3[8:1],1>6[4:1],,,7-4[8:1]/5v2[8:1],,2-5[8:1]/4v7[8:1],,7<4[8:1],2<7[8:1],5>2[8:1],8b,
{8}2-6[4:1],,,7-4[4:1],,,3<6[4:1],,,7-3[4:1],,,1-5[4:1],,,,7-3[4:1],,,2-5[4:1],,,6>3[4:1],,,2-6[4:1],,,7>2[4:1],,,,3-6[4:1],,,7-4[4:1],,,3<6[4:1],,,7-3[4:1],,,1-5[8:1],,1<2[16:7]*<6[16:3]*<5[16:4]*<4[16:5]*<3[16:6],,,,,,,,8>7[16:7]*>3[16:3]*>4[16:4]*>5[16:5]*>6[16:6],,{1},
{16}3V52[16:5],,,6-1[16:2],{4},,,2>5[8:1]/1<6[8:1],,7<4[8:1]/8>3[8:1],,{16}6V47[16:5],,,3-8[16:2],{4},,,7-2[8:1]/3-6[8:1],,2-7[8:1]/6-3[8:1],,2-5[8:1],5-2[8:1],2-5[8:1],5-2[8:1],7-4[8:1],4-7[8:1],7-4[8:1],4qq7[4:2],,,{8},5<8[4:1],5pp2[4:2],,{1},
{4}2-6[4:2],,7>2[8:1],,7-3[4:2],,2<7[8:1],,3-7[4:2],,6>3[8:1],,6-2[4:2],,3<6[8:1],,8qq8[4:1],,1pp1[4:1],,5pp5[4:1],,4qq4[4:1],,8q1[4:1],,,4-2[8:1]/5-7[8:1],4-8[8:1]/5-1[8:1],4>5[20:7]*>7[20:5]*>6[20:6]/5<4[20:7]*<2[20:5]*<3[20:6],,,
{8}2-5[8:1],5-2[8:1],2-8[8:1],8>7[4:1],,,,,8-6[8:1],8-4[8:1],,,1-3[8:1],1-5[8:1],,,7-4[8:1],4-7[8:1],7-1[8:1],1<2[4:1],,,,,1-3[8:1],1-5[8:1],,,8w4[8:1],,,,3<6[8:1],,3p6[4:1]*>6[4:1],,,,,,6>3[8:1],,6q3[4:1]*<3[4:1],,,,,,3-5[8:1],3-1[8:1],,,6-4[8:1],6<3[8:3],,,,,,,1-5[8:1],,,,{8}7-4[8:1],4-7[8:1],7-1[8:1],1<2[4:1],,,,,2pp4[8:1]/6qq4[8:1],,,,7qq5[8:1]/3pp5[8:1],,,,2-5[8:1],5-2[8:1],2-8[8:1],8>7[4:1],,,,,4-2[8:1],4-8[8:1],,,5w1[8:1],,,,6>3[8:1],,6q3[4:1]*<3[4:1],,,,,,3<6[8:1],,3p6[4:1]*>6[4:1],,,,,,1>4[8:1],8<5[8:1],1-5[8:1],8-4[8:1],1-3[8:1],8-6[8:1],1>8[8:3],,,,,,5-1[8:1],,5b<4[16:7]*<7[16:2]*<8[16:3]*<1[16:4]*<2[16:5]*<3[16:6],,
{4},,,2-4[8:1],6-8[8:1],4-6[8:1],8-2[8:1],6-8[8:1],2-4[8:1],8-2[8:1],4-6[8:1],2-4[8:1],6-8[8:1],4qq4[4:1],,7-5[8:1],3-1[8:1],5-3[8:1],1-7[8:1],3-1[8:1],7-5[8:1],1-7[8:1],5-3[8:1],7s3[4:2],,,1-5[8:1],,4-8[4:7]*-8[4:7],,,,,,,,
{1},,,,{4}3<6[4:2],,,,6>3[4:2],,,,{8}1-5[4:2],,,,,,,8b,{4},,4-1[8:1]/5-8[8:1],4b/5b,
{8}3-6[8:1],6-3[8:1],3-8[8:1],8>7[4:1],,,,,5q2[8:1]/6<1[8:1],,,,4p7[8:1]/3>8[8:1],,,,6-3[8:1],3-6[8:1],6-1[8:1],1<2[4:1],,,,,4-1[8:1],5-8[8:1],,,1-4[8:1],8-5[8:1],,,3<6[8:1],,3p6[4:1]*>6[20:5]*>7[20:4]*>8[20:3]*>1[20:2],,,,,,6>3[8:1],,6q3[4:1]*<3[20:5]*<2[20:4]*<1[20:3]*<8[20:2],,,,,,2<7[4:1],,7pp2[4:2],,,,,,4<8[8:1],8>4[8:1],,,5-1[8:1],,5b<5[4:8]*<7[4:2]*<8[4:3]*<1[4:4]*<2[4:5]*<3[4:6]*<4[4:7],E
Re:MASTER
- MASTER譜面を追加しました。修正などありましたらよろしくお願いします。 -- Sugar (2026-01-30 23:45:33)
- BASICを追加しました/ -- やあきましゅう (2026-01-31 11:22:10)
最終更新:2026年10月04日 18:17