| アーティスト |
yowanecity feat.Eye |
BASIC
ADVANCED
EXPERT
MASTER
(164)
{1},
{8}3h[4:1]/7h[4:1],,,2h[4:1]/6,,4,{4}4,
{16}46,,,28,,,{8}37,3/7-4[8:1],2,{4}1h[4:1],
{8}3,4,25,36,{4}4>1[8:1]/7,5<8[8:1],
{8}3,3,7,7,8-4[8:1]/1-5[8:1],36,{4}18,
{4}2b/7b,{8}16,{16}7,8,,56,,3,4,2,5,2,
{8}5,34,12,{16}7,8,,6,{8}5,47,38,
{8}12,{16}12,,,46,,,{8}46,35,24,{16}1,1,
{16}5,5,4,4,7,7,5,5,,46,{8}46,{16}3-1[8:1],5,2,4,
{4}3,{32}8,7,6,5,4,3,2,1,{4}8,{16}7,5,7,5,
{8}7,56,78,{16}2,1,,3,{8}4,25,16,
{8}78,{16}78,,,35,,,{8}35,46,57,{16}8,8,
{16}4,4,5,5,3,3,4,4,,25,{8}25,7-1[8:1],46,
{4}5b,{8}3-8[8:1],25,{16}4,,,6,{8}6,17,
{8}17,{16}6,5,,3,{8}4,{4}25,{8}3-6[8:1],3,
{8}7-2[8:1],7,4-1[8:1],4,8V63[4:1],8,2,2h[4:1],
{8},1x,38,56,7<4[8:1],8,{4}1-5[8:1],
{4}1b-7[8:1]*-3[8:1],1b-4[8:1],{16}1b/5b,,,6,{8}6,{16}7,8,
{16},2,{8}1,34,56,7/8-4[8:1],1h[8:3],{4}8,
{8}3,4,5,6,4,3,2,1,
{8}4,5,{4}6,3bV57[4:1]/Cf,
{4}7V53[4:1],8,{8}1,28,37,4-1-5[4:1]/6,46,7,
{8}7,8-4-7[4:1],8,2,{4}2,{8}15,{16}8x,7,
{16},4x,3,,1x,2,,5x,{8}6,7pp2[8:3]/8,26,1,
{4}1,{8}4,4,{4}3b/5b,{8}6,6,
{16}7h[8:1]/8h[8:1],,,2h[8:1]/4h[8:1],,,5h[8:1]/7h[8:1],,,1h[8:1]/2h[8:1],,,3h[8:1]/5h[8:1],,,1h[8:1]/7h[8:1],
{16},,4h[8:1]/6h[8:1],,,7<3[16:3],,,{8}1,1h[4:1],,5,
{8}5,2,2,6,7-5[8:1],8,1,2h[8:1],
{8}4,7h[8:1],5-8[8:1],4,{4}3,17,
{8}5,4,3-6[8:1],2,{4}1,{8}3,2,
{8}1,8,7-2[8:1],6,4,4,3-8[8:1],3,
{8}5,6,7-4[8:1],7,{4}1>4[8:1],{8}5,6,
{8}7h[8:1],5,3h[8:1],5,{16}46,,,6,{8}5,5,
{4}8<3[8:3],{8}2,1,{4}8h[4:1],{8}4,4,
{4}1>6[8:3],{8}7,8,1,1,{4}5b,
{2}4-8[8:1]/3-7[8:1],6-2[8:1]/5-1[8:1],
{8}34,25,{4}25,{8}47,56,{4}7b<4[8:1]/8bp3[8:1],
{4}7/8-2[8:1],8-6[8:1]*-4[8:1],8,{8}3/7<4[8:1],2,
{8}1-5[8:1],2,6>3[8:1],7,{4}2h[4:1],{8}8,8,
{8}1,1,24,35,46,7-4[8:1]/5-1[8:1],{4}8,
{8},4-8[8:1]/2-5[8:1],{4}1,{8},7x/8x,{4}7x-5[8:1]/8x-4[8:1],
{4}7/8>3[8:1],58,{8}6-2[8:1]/5-1[8:1],47,{4}5-3[8:1]/6-8[8:1],
{4},{8}8q4[8:1]/2-7<5[8:1],1,{4},3x/6x,
{16}2b,4,1,7b,8,5w1[8:1],{8}4b,{4},{8}2x/8x,2x-7[8:1]/8x,
{8},2/5-8[8:1],,45,,3,{4}3>7[4:1],
{4}7>3[4:1],{8}4,4,{4}5,{8}6<2[4:1],6,
{4}2<6[4:1],{8}5,5,{4}4,{8}3-6[8:1],3,
{8}7-2[8:1],7,4-1[8:1],4,8-5[8:1],8>6[8:3],1x,8x,
{8},1,{4}1v6[8:1]*v4[8:1],,{8}3<6[8:1]/7p2[8:1],2,
{4},1x/8x,{8}2-5[8:1],5-1[8:1],7,8V64[8:1],
{8},8V24[8:1],,8,,6,6,4,
{8}2-6[8:1],6-2[8:1],7,8,8-4[8:1],4-8[8:1],3,2h[4:1],
{8},8x,8x,1,2,3qq5<2-4[1:1],4,5b,
{2},{4},{8},8v6[8:1],
{8},8-4[8:1]*v2[8:1],{4},{8},15,,4/7<3[4:1],
{2}4/7h[8:3],{8},36,,2h[2:1]/5-8[8:1],
{4},{8},1-5b[8:1],,3b,{4}3V17b[4:1],
{4}4,{8}5,5w1b[8:1],{4},{8},7hx[8:1]/E4f,
{8},2hx[8:1]/E6f,,8hx[8:1]/E5f,,3,{4}2-5[8:1]/1-5[8:1],
{4}1bx/2bx,{8}7h[8:1],{16}5,5,6,4,5,3,4,2,3,1,
{8}4-8-6[4:1],4,3,{16}2,2h[16:5],{4},{8}1,38,
{16}4<5-1[16:3]/7,,,6,,,{8}8,8,{16}2,1,,35,,7,
{16}7,5,6,5,6,5,7,5,8qq4[4:1],5,8,5,{4}8x,
{2}2h[4:1],3h[4:1]/5h[4:1],
{2}7h[4:1],4h[4:1]/6h[4:1],
{8}3,3,5,5,{16}2,4,2,4,{32}E3,E4,E5,E6,E7,E8,E1,E2,
{16}E3,,,8,{8}1,3x/6x,{4},8-4[8:1]/7-3[8:1],
{4}78,2-6[8:1],{8}6,7-1[8:1],,3V52[4:1],
{8},8,{4}8V64[4:1],1,{8}1,8,
{4}7>2[8:1],4-8[8:1],{8}1,1-5[8:1],,3-7-2-8[8:3],
{8},4,,5,,7,{4}8-4[8:1]/1v3[8:1],
{4}18,5q1[8:1]/6<8[8:1],56,{8}2,2-5[8:1],
{8}5-1[8:1],6,7,8,{4}8h[4:1],{8}1-5[8:1],8-6[8:1],
{8}1-3[8:1],8-4[8:1],1pp5[8:3],8,{4}A1f,{8}7,7>3[4:1],
{8},3>7[4:1],,6,,4,{4}4,
{32}5-1[8:1],6,7,8,1,2,3,4,{4}5x,{8}4/8<6[8:1],4,4/8>2[8:1],4,
{8}5/8-6[8:1],5,5/8-2[8:1],5,4/8,4,37,37,
{8}1>3[8:1]/5,5,1<7[8:1]/5,5,1-3[8:1]/4,4,1-7[8:1]/4,4,
{8}1>3[8:1]/5,5,1<7[8:1]/5,5,{4}1/4,{8}3,12,
{8}1>4[8:1]/8q5[8:1],78,{4},{8}6,7qq3[4:1]/8,1,
{4},{8}2,1,8h[4:1],,4,{4}2b/6b,
{8}7-3[8:1],3-7[8:1],7>2[8:1],2qq6[4:1],{4}2,{8}4,4,
{8},2-6[8:1],6-2[8:1],2<7[8:1],{4}7pp3[4:1],{8}4,4,
{8},8-4[8:1],4-8[8:1],8-5[8:1],2,1>8[8:9],1,4bh[8:11],
{1},
{4},{24}7,6,5,4,3,2,1,8,7,6,5,4,3,2,1,8,7,6,
{24}5,4,
E
Re:MASTER
最終更新:2026年01月31日 21:38