BASIC
ADVANCED
EXPERT
MASTER
(150){1},
4b/5b,{8},,,{32}E4,B4,B5,E6,{8},E8/B7,E2/B2,,
E7,,E3,{4}E1,C,E5,,{16}E6,E4,{8}E5,E3/B2,E7/B6,E1/B1,
Ch[4:1],{4},E3,E5,E7,,{32}E6,B5,B4,E4,{8},E2/B2,E8/B7,,
E3,,E7,{4}E1,C,E5,,{16}E4,E6,{8}E5,E7/B7,E3/B3,E1/B8,
4b,,4,E6,4,E7,4,E8,4,,4,{32}E8,B7,B6,E6,{8}4,E5,4/C,,
5,,5,E4,5,E3,5,E2,5,,5,{16}B2,B3,{8}5,C,5,E1,
3x/7x,3,46,4,35,5,26,6,47,6,25,4,37,2,15,15,
{16}2,4,2,4,3,5,3,5,4,6,4,6,5<4[48:29],7,5,7h[16:13],{8},,,,,{48}E4,E3,E2,E1,E8,E7,{8}E6,,
3x-6[8:1]/4x,,37,,8-5[8:1],1,8-3[8:1],,68,,2^4[12:1],18,{16}7-3[8:1],6,{8}5,17,,
2-5[8:1]/8,,12,,7-4[8:1],8,7-2[8:1],,37,3,{16}6,5,7,,3q5[4:1],4,{8}2,,,
6x-3[8:1],,26,,1-4[8:1],8,1-6[8:1],,13,,7^5[12:1],18,{16}2-6[8:1],3,{8}4,28,,
1/7-4[8:1],,78,,2-5[8:1],1,2,,18,{16}1,2,8,7,2,3,7,6p4[16:3],3,4,,,,,
1b,,,,3x,,,4,3x,,5,,3x/5,,,,3x/5,,,4,3x,,5,,3x,4,,,3x/5,,2x/6,,
1x^4[8:1]/7,,,,1/6x,,,5,6x,,4,,4/6x,,,,4/6x,,,5,6x,,4,,6x,5,,,3/7x,3/7x,3/7x,,
2/8x^5[8:1],,,,38,,2,1,,3,4,,25,,,,47,,6,5,,7,8,,2,1,,6,57,,,,
24,,5,4x/6x,,3,2x/4x,,6,5x/7x,,1,2x/8x,,37,,4x,6,5,6,4,6,3,6,2,6,1,6,8,6,7,6,
{1}5b-1[8:13],,
{4}2h[2:1]/8,,4,5h[2:1],,4,35,,
7h[2:1],,5,4h[2:1],,5,46,35,
2h[2:1]/4,,1,8h[2:1],,5,46,,
3h[2:1],,4,5h[2:1],,4,35,26,
17,{8}8,8,1,2,3,4,,35,,4,4,{16}6,5,,5,{8}6,
E3/B3,,E7/B7,,E4,B4,B5,E6,,E2,E3,E4,E8,E7,E6,,
1h[8:1],,1,1,8,7,6,5,,46,,5,5,{16}3,4,,4,{8}3,
E7/B6,,E3/B2,,E6,B5,B4,E4,,E2,B1,B8,E8,{16}B4,B5,B3,B6,E3,E7,
{8}1b,,1,E6,1,E7,1,E8,1,,1,{32}E8,B7,B6,E6,{8}1,E5,1/C,,
8,,8,E4,8,E3,8,E2,8,,8,{16}B2,B3,{8}8,C,8,E1,
2x/6x,3,47,6,35,4,57,6,24,35,46,57,48,37,26,15,
{16}8,8,7,7,6,6,5,5,4,4,3,3,2,2,1,1h[16:13],{8},,,,,{64}E5,E4,E3,E2,E1,E8,E7,E6,{8}Cf/E5,,
1b-5[8:1],,1/8x,7,4/6x,5,3x/4,2,1x/7,8^5[8:1],1x,8,1x,{16}2,4,3x,4,2,,
1/8x,,7,5,6x,5,7,,1x/8,,3,4,2x,4,3,,7/8x,,6,5,7x,5,{8}6,1x/2,3,4x^1[8:1]/5x^8[8:1],3x/6x,
4b/5b,,2x/7x,27,8-3[8:1],7-4[8:1],8,7,,2-6[8:1]/6,35,26,7,{16}8,2,1,2,8,,
4x/6,,1,7,8,7,1,,3/5x,,7,5,6,5,8,,1x/7,,2,4,3,4,1,,7b/8x,,,4b/5b,{8},1x/2b,
4x/8b-4[8:1],,1x/8,2,3x/5,4,5/6x,7,2/8x,1^4[8:1],8x,1,8x,{16}7,5,6x,5,7,,
1x/8,,2,4,3x,4,2,,1/8x,,6,5,7x,5,6,,1x/2,,3,4,2x,4,{8}3,7/8x,6,4x^1[8:1]/5x^8[8:1],3x/6x,
4b/5b,,2x/7x,27,1-6[8:1],2-5[8:1],1,2,,3/7-3[8:1],46,37,2,{16}1,1,7x,8x,7x,,
1x/6,,8,8,2,1,2,,3xh[8:1]/8h[8:1],,,1h[8:1]/6xh[8:1],,,2b/7b,,1xh[8:1]/3h[8:1],,,6h[8:1]/8xh[8:1],,,4b/5b,,2b/7b,,3,4>5[16:17],,6,{8}5,
Cf,,,{1},{16},2b/4x,,5x/7b,,1b/8x,1x-5[8:1]/8b-4[8:1],,2b/7x,,
1b/8b,,,,3b/6b,,,2h[8:1],,4h[8:1],,3,4x,,15,,8x,,17,,6x,5,6,5h[8:1],,7h[8:1],,5,6x,,4x/8x,,
1b^4[8:1],,78,,1b/5,,6,6b,,5/7b,,48,4/8b,,15,,8b^5[8:1],,1b/2,,4/8b,,3,3b,,2b/4,,15,1b/5,,48,,
5/7b,,3,2b/4,,7,6/8b,,2,1b/3,,8b,1b>8[4:3]/7b<8[4:3],1b/7b,1b/7b,,{1}1b/7b,
Cf/E1/E5/B4/B8,,,,E
Re:MASTER
最終更新:2026年09月12日 15:08