BASIC
ADVANCED
EXPERT
(130){1},
2h[1:1],4h[1:1],{2}5h[4:3],6h[4:1],7h[4:3]/4<1[2:1],,
{8}3h[4:1],,4,,6,6,5,,3h[4:1],,1,,6h[4:1],,8,8,{4}7,2h[4:1],1,87,56,34,16,,7h[4:1],5,{8}2,2,4,,6h[4:1],,8,,3h[4:1],,1,1,{4}2,34,56,87,7<4[8:3]/8>3[8:3],,,,2,12,{8}7,7,8,,12,,3,,45,,6,6,{4}5,34,2,12,87,7-4[4:1]/8-3[4:1],,,2,34,{8}6,6,{4}5,34,2,81,87,6h[4:1],5,3h[4:1],1w5[8:3],,,,47,
5h[1:1]/6h[4:1],,7h[4:1],,8<5[8:3],,,3,4h[1:1]/3h[4:1],,2h[4:1],,1>4[8:3],,,6,6h[4:1],8h[4:1],{8}7,7,{4}8,6q4[2:1],,,1,2h[4:1],1h[4:1],{8}3,3,{4}1,1<6[8:3]/2>5[8:3],,,,{8}64,,53,,6,6,5,,34,,56,,3,3,4,,1x/2x,1x-6[8:1]/2x-5[8:1],,,,,,,
56,,7,,8,8,1,,2h[4:1],,4,4,,6,{4}6,87,6,45,3,1/2-4[4:1],,,35,4/2h[8:3],{8},1,1,,81,,78,78,,6/1h[4:1],,4,4,,43,43,,12,,87,{4}8/7q4[2:1],,,,2bx,
3h[2:1],,5h[2:1],,7V53[2:1],,,,6h[2:1],,4h[2:1],,2V48[2:1],,,,3h[4:1],2h[4:1],1h[4:1],2h[4:1],3V17[2:1],,,,6h[4:1],7h[4:1],8h[4:1],7h[4:1],6-8-5-1-4-2[4:5],,,,,,,8x/1x,87,56,34,12,{8}8x/1x,8x-4b[8:1]/1x-5b[8:1],
{2},,B1/B5,B2/B6,B3/B7,B8/B4,E8/E4,E7/E3,{4}B1,B8,,,15,,26,,37,,84,{2}1hx[4:1]/5hx[4:1],8hx[4:1]/4hx[4:1],3x>8[4:1]/7x<4[4:1],{4},2bx/6bx,
{8}2/6,,3,4,5,,87,,{4}8h[4:1]/7-4[8:1],,1h[4:1]/2-5[8:1],,87,34,12,56,{8}7,7,5,,18,,18,,47,,6,5,{4}4,12,1h[4:1]/2-5[8:1],,8h[4:1]/7-4[8:1],,12,56,87,34,1>4[4:1]/8<5[4:1],,,1b/8b,7<5[8:1]/8p4[8:1],,2>4[8:1]/1q5[8:1],,86,81,12,83,2/7-2[8:1],,3-6[8:1],,{8}7,7,5,5,{4}6-3[8:1],,2>4[8:1]/1q5[8:1],,7<5[8:1]/8p4[8:1],,13,81,87,16,2hx[4:1]/5x-1[8:1],,7hx[4:1]/4x-8[8:1],,2hx[4:1]/5x<4b[2:1],,,1b,
{8}3,3h[4:1],,1,,5/6h[4:1],,8,,4/3h[4:1],,1,,56,,87,87,,12,12,,34,,5/6h[4:1],,8,,34,,81,81,,3,34,,17,,56,,28,,34,,17,,56,74,74,,12,,56,,87,,34,,12,,36,,81,{4}1>7[2:7]/8<2[2:7],{1},,,,C/B3/B6,
E
MASTER
(130)
{4}8<5[4:1],,1>4[4:1],,6,4,2v3-5[4:1],5,6h[4:1],8h[4:1],1h[4:1],3q5<2[4:3],Cf,,,5x,
{8}4/6,7,3/5,2,4/6,7,3/5,2,5/6,7,3/4,2,5/6,7,
{8}3/4<7[8:1],2,2/4qq1[8:3],,6,,7,7,6,6,1/5,3,4/8-2-6-4[8:3],7,3x,3x,3x,,
{8}4x/6x,7,3/5,2,4/6,7,3/5<8[8:1],4,5>2[8:1],,5/7,,3/5,,3/4-8[8:1],2,
{4}1-5[8:1],7p3[8:1],2q6[8:1],8<1[8:3],Cf,,
{8},1x/8x,1x/8x,2/7,6,4/7,3,2/5,6,4/7,3>7[4:1]b,6,7<3[4:1]b,,C,,8,,1/2,3/8,4/7,,
{8}3,2/5,6,4/7,3,2/4,5,4/6,7z3[4:1],7,3,2x,1x,1x,
{8}6,4/7,3,2/5,6,4/7,3,2/5,6-2[8:1],,4-8[8:1],,7,,
{4}2-5[8:1]/8-6[8:1],2/8,1-3[8:1]/7-4[8:1],1/7,1-5[8:1]/8-6[8:1],1-3[8:1]/8-4[8:1],1/8,
{8}1x/8x,2x/7x,3x>1[8:1]/6x<8[8:1],4x/5x,3x/6x,,1/8,6,4,2,
{4}1-4[8:1],1-6[8:1],1>4[8:1],1<6[8:1],1,3/7,
{8}8,2,4,6,
{4}8v5[8:1],8v3[8:1],8<5[8:1],8>3[8:1],8,2/6,
{8}1,7,5,3,
{4}1-3[8:1],1-7[8:1],1-4[8:1],1-6[8:1],1-5[8:1],1/7h[4:1],
{8}5,5,4,4,
{4}3-5-1-7[4:2],6,6,6,
{8}5/7,6,5/3h[4:1],,
{16}4,4,,2/5,,6,6,,
{8}4/7,5/6,4/7h[4:1],,
{16}5,5,,4/8,,3,3,,
{8}2/6,5,3/5,3/5,
{16}6,4,,3/7pp5[16:5],{4},,
{8}4,,6<2[4:1],6,2<6[4:1],3,4,4,3V52[4:1],3,8,8h[4:1],,1,
{16}3,4,,6,5,,
{8}4/7,4/7,3,2/6,7,4/8,
{16}7,5,6,,2,4,3,,2,1,,7,8,,
{8}5-1[8:1]/6-8[8:1],4/7,,,1x/8x,2,3/4,5,6>3[8:1],6,1,8w4[8:1],,,,,
{16}2/4,,6,5,7,,
{8}1/8,2-4<5-7[4:1],2,7,,8,8,5/7,
{16}3,4,2,,6,5,
{8}7v6-4[4:1],8,1x,2x,
{4}3V17pp2[4:6],5h[4:1],,5,4h[4:1],,4,E5,
{4}6V82qq5[4:6],3h[4:1],,3,4h[4:1],,4,E4,
{4}3V17pp4[4:6],5h[4:1],,5,6h[4:1],,6,E7,
{4}6h[4:3],4,,5,7/4-8[8:1],
{16}5,5,,3,,1,1,,
{8}2/4,3,2/5-1[8:1],,
{16}4,4,,6,,8,8,,
{8}5/7,6,7/4-8[8:1],,
{16}5,5,,3,,1,1,,
{8}2/4,5,4/6,7,
{16}7,1,,2b/6b,{4},,
{4}3h[8:1]/5h[8:1],3h[8:1]/5h[8:1],4h[8:1]/6h[8:1],4h[8:1]/6h[8:1],
{4}3h[8:1]/5h[8:1],3h[8:1]/5h[8:1],4h[8:1]/6h[8:1],4h[8:1]/6h[8:1],
{4}3h[8:1]/5h[8:1],3h[8:1]/4h[8:1],4h[8:1]/6h[8:1],5h[8:1]/6h[8:1],
{4}5h[8:1]/3-1[8:1],5h[8:1],4h[8:1]/6<8[8:1],4h[8:1],
{4}3h[8:1]/5h[8:1],3h[8:1]/5h[8:1],4h[8:1]/6h[8:1],4h[8:1]/6h[8:1],
{4}3h[8:1]/5h[8:1],3h[8:1]/4h[8:1],4h[8:1]/6h[8:1],5/6,
{12}6,5,4,5,4,3,6,5,4,5<4[4:2]b,4,3,2h[4:2],,,{4},,
{4}7/1>5[8:1],1b/6b,
{16}8<4[8:1],,,4,4,,
{8}3,2-7[8:1],1,8-4[8:1],,5-1[8:1],,7h[4:1],,8,1/6,2/5>3q7[8:3],,
{16}3,,,1,1,,
{8}2,3/8<5[8:1],1,4/8>3[8:1],,8/7z3[4:1],,3,2x,1x>5[8:1],1x,1/6,,
{16}8h[16:3],,,5,5,,
{8}4,3-7[8:1],4,5-8[8:1],,2>5[8:1],,7h[4:1],,4,3/6,
{4}5/2v5[8:1],4-1[8:1]*-7[8:1],4-8[8:1],4p5[8:3]b*>5[8:3]b,,,
{8},3/7,8<4[8:1],
{32}2x,1x,2x,8x,
{16},,,,1>5[8:1],,,5,5,,
{8}6,7>3[4:1]b,4,3<7[4:1]b,,C,,2h[4:1],,1,3/8,7/4V62[4:1],,
{16}6,,,8,8,,
{8}7,6/1>4[8:1],8,5/1<6[8:1],,1/3z7[4:1],,7,8x,8x<4[8:1],8x,8/3,,
{16}1h[16:3],,,4,4,,
{8}5,6-2[8:1],5,4-8[8:1],,7<4[8:1],,1,,
{4}3x-8[8:1]/5x-7[8:1],3/5,4-2[8:1]/6-1[8:1],4/6,
{4}4-8[8:1]/5-7[8:1],4-2[8:1]/5-1[8:1],4/5,
{8}3x/4x,3x/4x,1x/2x,7x/8x,5/6,8,3/4,1,4/6,8,3/5,1,5/6,8,3/4,1,
{8}5/7<4[8:1],3,2q6[8:1],,7h[4:1],,8,8,5/6,
{16}2,4,3,,7,5,6,,2,1,3,,7,8,6,,
{8}5/6,4/7,4/7,
{8}5h[4:1]/6,8,6h[4:1],8,4h[4:1],8,5h[4:1],1,3h[4:1],1,4h[4:1],1,
{8}3-6-2[4:1],,7,,8,8,2,
{16}2,1,,1,3,,
{8}3/4,2/5,2/5,
{16}1,4,3,,8,5,6,,1,,
{24}E2,E3,E4,E8,E7,E6,
{4}1b>2z6>5s1[4:13],,,,,,,,,,,,,,,,C/B4/B5/E5,
E
Re:MASTER
- 2026/02/18expert追加しました -- やあきましゅう (2026-02-18 20:18:33)
最終更新:2026年04月01日 21:44