BASIC
(176)
{1}4h[1:1],,4,4,
{1}5h[1:1],,5,4/5,
{1}B4,B5,B3,B6,
{1}B2,B7,B1,Ch[1:2],,,
{1}8,7,
{1}6,5/4,
{1}4,3,
{1}2,1/8,
{2}1,1,2,,
{2}3,3,4/5,,
{2}5,5,6,,
{2}7,7,8/1,,
{2}7,7,7/8,,
{2}6,6,4/5,,
{2}3,3,3/4,,
{2}2,2,1/8,,
{1}1-5[4:3],,
{1}8-4[4:3],,
{1}2-5[4:3],,
{1}7-4[4:3],,
{1}E4,E3,
{1}E2,E1,
{1}E8,E7,
{1}E6,C,
{2}1b,1,2,2,
{2}3,3,4/5,,
{2}5,5,6,6,
{2}7,7,8/1,,
{2}8,8,7,7,
{2}6,6,4/5,4/5,
{2}4,4,3,3,
{2}2,2,1b/8b,,
{2}8,8,1,1,
{1}1h[1:1]/8h[1:1],,
{1}1h[2:1]/2h[2:1],1/2,
{1}3h[2:1]/4h[2:1],3/4,
{1}5h[2:1]/6h[2:1],5/6,
{1}7h[2:1]/8h[2:1],7/8,
{2}8,8,7,7,
{2}6/5,6/5,6/5,,
{2}4,4,3,3,
{2}1/2,1/2,1/2,,
{2}8,8,8/7,8/7,
{2}1,1,1/2,1/2,
{1}8hx[1:1],,
{1}B8/B1,B7/B2,
{1}B6/B3,B5/B4,
{1}B6/B3,B7/B2,
{4}B8/B1,Ch[12:15],,,,,,,,,,,,,,,,,,,,,,
E
ADVANCED
(176)
{2}2,2,2,,3,3,3,,
{2}4,4,4,,{1}5/6,5/6,
{2}7,7,7,,6,6,6,,
{2}5,5,5,,{1}4/3,5h[1:2]/4h[1:2],,,
{1}3-6[4:3],,
{1}7-3[4:3],,
{1}1-5[4:3],,
{1}7-4[4:3],{2},3/4,
{2}2,2,3,3,
{2}4,4,5/6,,
{2}7,7,6,6,
{2}5,5,4/3,,
{1}3h[1:1],4h[1:1],
{1}5h[1:1],6,
{1}6h[1:1],5h[1:1],
{1}4h[1:1],3,
{2}3,3,3/4,,
{2}2,2,2/1,,
{2}8,8,8/7,,
{2}6/5,6/5,6/5,,
{2}B7,B6,B5,B4,
{2}B3,B2,C,,
{2}7-4[4:3],,,3,
{2}2-5[4:3],,,4x/5x,
{4}6bx,6,6,,7,7,7,,
{4}8,8,8,,{2}1/2,1/2,
{4}3bx,3,3,,2,2,2,,
{4}1,1,1,,{2}8/7,8/7,
{4}6b,6,6,,7/8,7/8,7/8,,
{4}1,1,1,,1/2,1/2,1/2,,
{4}3,3,3,,1/2,1/2,1/2,,
{4}8,8,8,,7/8,7/8,7/8,,
{4}6,6,6,,7/8,7/8,7/8,,
{4}1,1,2,2,3/4,,,,
{4}3,3,3,,1/2,1/2,1/2,,
{4}8,8,7,7,6/5,,,,
{2}6h[2:1],5,6/5,6/5,
{2}7h[2:1],8,7/8,7/8,
{2}2h[2:1],1,2/1,2/1,
{2}3h[2:1],4,3/4,3/4,
{4}2,2,2,,3,3,3,,
{4}4,4,4,,{2}5/6,5/6,
{4}7,7,7,,6,6,6,,
{4}5,5,5,,{2}4/3,4/3,
{1}4>1[4:5]/5<8[4:5],,
{2}B7,B6,B5,,
{2}B2,B3,B4,,
{2}6,6/5,3,3/4,
{2}4/5,4/5,{4}4h[12:15]/5h[12:15],,,,,,,,,,,,,,,,,,,
E
EXPERT
(176)
{1}6h[1:2],B5,5h[1:1],{2}B6,E5,
{1}3h[1:2],B4,4h[1:1],{2}B3,E5,
{2}6h[1:2],B6,B5,E5,3h[1:2],B3,B4,E5,
{2}6h[2:1],5h[2:1],4h[2:1],3,3/5,4/6,5/7>5[4:5],,,,,,
{4}2,2h[4:1],1,1,3,4,3/5,,
{4}7,7h[4:1],8,8,6,5,6/4,,
{4}2,2h[4:1],1,1,3,4,4/5,,
{4}2/7,3/6,4/5,,1>4[8:3]/8<5[8:3],,,,
{2}2h[2:1],4h[2:1],3-5[4:1] ,,
{2}7h[2:1],5h[2:1],6-4[4:1],,
{4}2,2,{2}4h[2:1],5h[2:1],6,
{4}7,7,{2}5h[2:1],4-8[3:1],,
{4}3,3h[4:1],4,4,3,2,1/2,,
{4}7,7h[4:1],8,8,7,6,5/6,,
{1}6v3[8:3],2q7[2:1],
{1}5<8[2:1],{2}3/7,{8}5x,5x,4x,,
{4}7b,6/5,4,3/5,{8}2,2,1,,{4}8/3,4,
{4}5/6,7,8/6,1/2,{8}3,3,4,,{4}2/5,6,
{4}7,7h[4:1],5,5h[4:1],4,4h[4:1],2,2,
{1}1/3-5-7[2:1],{2}1h[4:1]/8h[4:1],2/7,
{4}4h[4:5]/3,3,2,2,1,1>4[4:1],,,
{4}5h[4:5]/6,6,7,7,8,8<5[4:1],,,
{4}2,2,3/4,3/4,5/6,5/6,1/8,1/8,
{1}2h[4:3]/7h[4:3],{4}2bx-7[8:1]/7bx,,6x,6x,
{4}5/4>8[4:1],,5,{8}6,6,8,,,,7-4[8:1],,,3,
{8}3-8[8:1],,,6,6-1[8:1],,,2,{4}2-5[8:1],,7,7/8,
{8}2,2,1,,7,7,8,,{4}7/1,8/2,3h[4:1],1,
{8}6,6,8,,3,3,1,,{4}2/8-4[8:1],,1,2,
{4}3/5<1[4:1],,4,{8}3,3,1,,,,2-5[8:1],,,6,
{8}6-1[8:1],,,3,3-8[8:1],,,7,{4}7-4[8:1],,2,2/1,
{8}7,7,8,,{4}6/5,4/3,{8}2,2,1-5[8:1],,{4},3,
{4}4/5,6,7/8,1/2,3/8-4[8:1],,2/6,3/7,
{4}8b/4b,8/4,7/3,7/3,6/2,6/2,5/1,5/1,
{4}8b>3[4:1]/4b<7[4:1],,,{8}8x,8x,1x,,2/7,2/7,,3/6,3b/6b,,
{4}4,3,2,1,8,7,6,5/4,
{4}6h[4:1],8h[4:1],2h[4:1],4h[4:1],5-1[4:1],,,,
{4}3,3h[4:1],1,8,7,6,5/3,5/3,
{4}4,5,6,7/8,1/2,3,4>6[2:1]/5,,
{4},,8,7,6-2[4:1],,,3,
{4}4-1[4:1],,,8x>4[8:5]*<4[8:5],,,,,
{8}1/2,,3,3,4,,6,6,5,,3,3,4,,5/6,,
{8}7/8,,2,2,1,,7,7,8,,2,2,1,,8/3,,
{4}1/2,5/6,7/8,3/4,2/8,5/6,1/7,3/4,
{2}1bx-5[8:1]/2bx-4[8:1],8bx-4[8:1]/7bx-5[8:1],1b>8[4:3]b/8b<1[4:3]b,,
{1},,
{8}E6,E5,E4,,{2},{8}E3,E4,E5,,{2},
{8}E7,E6,E5,,{2},,,
{8}E3,B3,B4,,{2},{8}E7,B6,B5,,{2},
{8}A4,D5,A5,,{2},{4}C,,,,,,,,,,,,,,,,,,,
E
MASTER
(176)
{4}5,6,7,8-5[2:1],1h[1:1],,,,5,6,7,8-5[2:1],3h[1:1],,,,
{4}4,3,2,1-3-5[4:3]*-7-5[4:3],,,,,4,3,2,1,2/8,3/7,4/6,,
{4}5,6,7,8,1h[1:1],,,,5,6,7,8,1h[2:1]/7h[2:1],,,,
{4}2p6>3[4:3],,,,7q3<6[4:3],,,,
{4}1p5>2[4:3],,,,8h[1:1],,,,
{4}1s5>4z8[4:5],,,,,,,,
{8}1>5[4:3],,,6,,,7,,{4}E8,E7,E6,,
{8}8<4[4:3],,,3,,,2,,{4}E2,E3,E4,,
{8}1>5[4:3],,,6,,,7,,{4}B8,B2/B6,E4/E5,,
{8}8<4[4:3],,,3,,,2,,{4}2h[2:1],,E5,,
{8}6,,7,7,5,,4/6,,7,7,{4}5<8[4:1]*p1[4:1],,,
{8}8,,7,7,5,,4/6,,7,7,{4}8<5[4:1]*q4[4:1],,,
{8}3,,2,2,4,,5/3,,2,2,4,,{4}3h[4:1]/5h[4:1],,
{8}1,,2,2,4,,5/3,,2,2,{4}1>4[4:1]*p5[4:1],,,
{4}6,7p3[4:1],4,2-4-1-5[4:3],6,7,7h[2:1],,
{4}3,2-6[4:1],5,7<5v8p4[4:3],4,,,{8},3,
{8}3h[8:3],,,1,1h[8:3],,,8,8h[8:3],,,6,6,,,2,
{8}2h[8:3],,,4,4h[8:3],,,5,5h[8:3],,,{16}7,6,{8}5,5,5/6,,
{4}4/7,4p8[4:1]/7,7,7,8/7,8q5[4:1]/7,7,7,
{4}5/7,5-3-1[4:1]/7,7,7,1/7,1>5[4:1]/7,7,7,
{4}5/7,5/7,1/8,1/8,2/4,2/4,4/5,4/5,
{4}6>3[4:1],3,2-7[4:1],5<4[2:1],,,{8},1,1,,
{4}2/8,2/8-4[8:1],2/8-5[8:1],2/8,2/4,2/4-1[8:1],2/4-7[8:1],2/4,
{4}2/6,2/6-8[8:1],2/6-4[8:1],2/6,2/5,2/5-7[8:1],2/5-1[8:1],2/5,
{4}2/8,2/8,2/8,2/8-6[8:1],8-4[8:1],8-5[8:1],8-3[8:1],8,
{24}A7,D7,A6,D6,,,{4},,,{12}1x,8,1,8x,1,8,{4}1xh[4:1],7<1[2:1],
{4}8,1>7[2:1],8,8,1,1-4-7[4:1],6,8-5-2[4:1],3,
{4}1-4-7[4:1],6,8<5[4:1]*>3[4:1],,,{8}2,2,4,3,
{8}7,7,5,8,{4}1>5[4:1],5<1[4:1],1b,5b,7-3[8:1],1-5[8:1],
{8}6,6,4,7,3,3,{4}5pp4[2:1],4,,3,3>5[2:1],
{4}4,5<3[2:1],4,4,5,5-8-3[4:1],2,4-1-6[4:1],7,
{4}5-8-3[4:1],2,4>1[4:1]*<7[4:1],,,{8}7,7,8,6,
{8}2,2,1,3,7,7,{4}5-3[8:1],5-7[8:1],5,1,2/8,
{8}7,7,5,6,2,2,{4}4-8[8:1],4/3h[4:17],,8,1-5[8:1],
{4}1b,6-2[8:1],6b,8-5[8:1],8b,2-6[8:1],2b,7<4[8:1],
{4}7b,1-4[8:1],1b,5-8[8:1],5b,1w5b[4:1],,,
{4}3/7,{8}6,6,{4}5/7,7/8,8/6,1/8,1/2,3/4,
{4}2/5,{8}3,3,{4}2/4v1[8:1],1>8[2:1]/4,,,,1b,
{8}8-6-4[4:1],,3,3,,2,2h[4:1],,4h[4:1],,E5,E3,E1,,5,,
{8}1-3-5[4:1],,6,6,,7,7h[4:1],,5h[4:1],,E5,E7,E1,,4,,
{8}8-6-4[4:1],,3,3,,2,2h[4:1],,4h[4:1],,E5,E3,E1,,B3/B4,,
{8}1-3-5[4:1],,6,6,,7,7h[4:1],,5h[4:1],,E5,E7,E1,,2/6-3[8:1],,
{4}2/6b,2/4-1[8:1],2/4b,2/5-8[8:1],2/5b,2/1-5[8:1],2/1b,7/3-6[8:1],
{4}7/3b,7/5-8[8:1],7/5b,7/4-1[8:1],7/4b,7/8-4[8:1],7/8b,2-5[8:1]/6-1[8:1],
{4}2/6,4-1[8:1]/8-5[8:1],4/8,3-8[8:1]/7-4[8:1],3/7,1/5,2/6,2/6,
{12}3,5,3,5,3,5,3,5,3,5,3,5,2,6,2,6,2,6,1,7,1,7,1,7,
{1}8bh[1:1],,
{8}5,4,3h[4:1],,E5,,,,5,4,3h[4:1],,E5,,,,
{8}5,4,3h[4:5],,5h[1:1],,,,,,,,,,,,
{8}5,4,3h[4:1],,E5,,,,5,4,3h[4:1],,E5,,,,
{8}5,4,3h[4:1],,E6,,,,{16}6,5,4,,{4},,,
{12},,5,4,3h[12:35],,{4},,,,,,,,,,,,,
E
Re:MASTER
- 追加しました。 -- もとなり (2026-02-05 17:00:00)
- 追加しました。 -- もとなり (2026-02-05 20:00:00)
- 追加しました。 -- もとなり (2026-02-05 20:01:00)
- 追加しました。 -- もとなり (2026-02-05 20:02:00)
最終更新:2026年04月07日 22:12