アットウィキロゴ

スローグロー

アーティスト nayuta

BPM BASIC ADVANCED EXPERT MASTER Re:MASTER
180 3 7 10+ 13 -

EXPERT MASTER Re:MASTER
譜面制作者 Luxizhel ロシェ@ペンギン -

BASIC


ADVANCED


EXPERT


MASTER

(180)
{1},

{1},
{1},
{1},
{1},
{24}B6,B5,E5,{8},{4},{2},
{24}B3,B4,E5,{8},{4},{2},
{24}B7,B6,E6,{8},{4},{2},
{24}B2,B3,E4,{8},{4},,45,

{8}1x,2,3,47,5,6,17,2,
{8}3,45,6,7,{4}2/8<5[8:1],8x/B4/B5/E5,
{8}3x,2,1,78,6,5,24,1,
{8}8,47,3,2,{4}1>4[8:1]/7,1x/B4/B5/E5,
{4}7h[4:1],{8}8,8,17,17,26,26,
{8}35,{16}6,5,{8}6,{16}3,4,{8}3,{16}7,5,{8}7,{16}2,4,
{8}2,{16}7,5,6,5,6,5,6,5,6,5,6,5,6,5,
{8}6,3bx/4bx,1bx/2bx,7b/8b,{2},

{2}3h[4:11],{4}6,6,
{4}5,5,4,4,
{2}2<4[2:1],{4},{16}E4,E3,E2,E1,
{16}E8,E7,E6,E5,{4}E4,12,23,
{4}3/4h[4:1],3,4/5h[4:1],4,
{4}5/6h[4:1],5,6/7h[4:1],6,
{4}7<2[2:1]/8h[4:1],{8},1,{4}1h[4:1],{8},{16}E1,E2/E8,
{4}E3/E7,5,4,38,

{4}7-5[8:1],{8}5,4,{4}3-5[8:1],{8}1,8,
{8}7,6p4[8:5],{4},3x,2x,
{4}1hx[4:1],8hx[4:1],{8}7x,6x,{4}5hx[4:1],
{4}4,34,{8}2,2,{4}13,
{4}68,{8}5,5,,4,3,2,
{4}1-7[8:1],6-2[8:1],8-6[8:1]*-4[8:1],8x,

{8}5x,5,5,5,4,4,4,4,
{8}3-6[8:1],2,{4}1-5[8:1],8-4[8:1],,
{8}3x,3,3,3,4,4,5,5,
{8}46,4/6-3[8:1],,4-1[8:1],,8,{4}8<5[8:1],
{4}8>3[8:1],8-4[8:1],4-7[8:1]*-1[8:1],,
{8}8,7,{4}56,{16}3,4,3,4,{8}3,2x-5[8:1]/5x,
{8},6,{4}6h[4:1],{8}8,1,2,3x/8x,
{8},12,{4}2q6[8:1]/1q6[8:1],,{8}7,8,
{4}1h[4:1]/5,{16}4,2,4,2,5,3,5,3,6,4,6,4,
{4}7hx[4:1],{8}8,1-4[8:1]/5-8[8:1],,1x/5x,{4},
{32}D1,A8,D8,A7,D7,A6,D6,A5,{4}D5,

{4}1b,{16}7,8,7,8,6,1,6,1,5,2,5,2,
{4}4bh[4:1],{16}3,4,3,4,2,5,2,5,1-5[8:1],6,1,6,
{4}1b,{16}7,5,7,5,6,4,6,4,5,3,5,3,
{4}4bh[4:1],C,{8}1b/7b,1bh[4:1]/7bh[4:1],{4},

{4}2x>5[8:1]/8x,{8}6,7,{4}8q6[4:1],{8}3,2,
{4}1-3[8:1],{8}18,7<2[4:1],,8,{4}1-6[8:1]*-5[8:1],
{4}1,{8}4-7[8:1],3,{4}2h[4:1],{8}8-4[8:1],7,
{4}6-2[8:1],1-4[8:1],{8}8,7,{4}56,
{4}2<7[4:1],7-3[4:1],3<6[4:1],6q3[4:1],
{4}8,{8}7,7h[4:1],,8,{4}8>3[8:1],
{24}E1,E2,E3,{8}E4,{4}8<5[8:1],{24}E1,E8,E7,{8}E6,{4}1>4[4:1],
{4}4q1[4:1],1>7b[2:1],{2}5bh[2:1],

{2},{24}B3,E4,,{8},{4},
{24}B6,E6,,{8},{4},{24}C,B4/B5,A4/A5,{8},{4},
{4}1x/8x,{8}57,7,46,6,{4}3-8b[8:1]/5,
{2}1b/A3f,{8},45,{4}45,

{1}1bx<4pp2b[4:5]/6bhx[2:3],
{2},{4},45,
{4}1h[4:1]/5,{16}4,,,4,{8}3,3,{4}35,
{4}4/7h[4:1],{16}5,,,5,{8}6,6,{4}46,
{4}2h[4:1]/5,{16}4,,,4,{8}3,3,{4}24,
{4}4/7h[4:1],{16}5,,,5,{8}6,6,{4}5/7-4[8:1],
{4}7x/8x,{8}1,2h[4:1]/8,,3,{4}1<6[8:1]/4,
{4}1x/2x,B3/B4/E4,{16}2,8,2,8,2,8,2,8,

{4}3bx,{8}4/E7,4,5/E8,5,6/E1,6,
{8}7/E2,7,8/E3,8,1/E4,1,2/E5,2,
{4}34,{8}6,6,17,2,3,4,
{4}5h[4:1],7-4-8b[4:1],{8}3x/7x,{32},B4,C,B8,{4}A8f,
{4}17,{8}6,6,57,57,48,48,
{8}13,4,5,6,78,16,{4}2-5[8:1]/5,
{4}28,{8}7-5[8:1]/1-5[8:1],17,{4}7x-3[8:1]/1x-3[8:1],1<2b[4:3]/7,
{1}1b/B6/B7/E7f,

{8}3h[4:1],,,3,{2},
{2},C,
{8}3h[4:1],,,3,{2},
{8}E4,,,E5,,,{4}E6,
{8}6h[4:1],,,6,{2},
{2},C,
{8}6h[4:1],,,6,{2},
{2}8h[4:1],1h[4:1],
{8}2h[4:1]/4h[4:1],,,2/4-6[8:1],{2},
{1}5w1[2:1]/7,

{1}2h[1:7]/8<4[4:3],
{1},
{1}3<6[4:3],
{1},
{24}B6,B5,E5,{8},{4},{2},
{24}B3,B4,E5,{8},{4},{2},
{24}B7,B6,E6,{8},{4},{2},
{24}B2,B3,E4,{8},{4},{8},45,{4}45,

{8}1x,2,3,47,5,6,78,1,
{8}2,35,4,5,{4}6-1[8:1]/8,{24}6x/B5,B4,E4,{8},
{8}8x,7,6,25,4,3,12,8,
{8}7,46,5,4,{4}1/3-8[8:1],{24}3x/B4,B5,E6,{8},
{4}1x/7hx[4:1],{8}8,8,17,17,26,26,
{8}35,{16}6,5,{8}6,{16}3,4,{8}3,{16}7,5,{8}7,{16}2,4,
{8}2,{16}7,8,6,1,6,1,5,2,5,2,4,3,4,3,
{8}4,5b/6b,7b/8b,1b/2b,{2},

{1}4pp2[4:11]/8pp6[4:11],
{1},
{1},
E

Re:MASTER


名前:
コメント:

タグ:

+ タグ編集
  • タグ:
最終更新:2026年02月07日 12:23