BASIC
ADVANCED
EXPERT
MASTER
(193)
{1}1>8[4:7],
{1},
{1}1>8[4:7],
{1},
{1}1pp3pp5pp7pp1[4:13],
{1},
{1},
{1},
{4}8,8,1,1,
{4}2,2,3,{8}3,4,
{4}2h[1:1]/5,4,4,4,
{4}4,{8}36,{16}4,5,{8}36,3/6<1b[8:1],,2b,
{8},3-1[8:1],4,6,{4}7h[4:1],{8}8<5[8:1],1,
{4}2h[4:1],{8}4,3,46,7-1[8:1],5,4b,
{8},2>5[8:1],2,1,{4}8,{8}8,7,
{8}56,4,3,2,12,1-5[8:1]/2,38,4b,
{8},3-1[8:1],3,8,{4}7h[4:1],{8}8<5[8:1],1,
{4}2,{8}2,3,46,7-3[8:1],8,1b,
{8},2,2>5[8:1],1,{4}8,{8}8,7,
{8}56,4,35,2,34,34,2/5-8[8:1],25,
{2}2h[4:3]/5b,{4},8,
{4}3h[2:1]/7,7,7,37,
{4}4h[2:1]/6,6,6,56,
{4}6/Ch[2:1],6,6,6,
{4}1x/7,7,7/E1,7/C,
{4}7/E5,7,7/E6,7/C,
{4}7/A1/E2,7,7/A8/B8,7,
{4}17,{8}26,{16}3,4,{8}3,25,25,25,
{8}4,3,{4}2/4v1[8:1],3,{8}2,2>4[8:1],
{8},1,{4}1,{8}35,4,,6,
{8}57,57,{4}5v8[8:1]/7,6,{8}7,7<4[8:1],
{8},8,1,2,8x,7,68,1,
{8}2,12,{4}1v4[8:1]/2,3-1[8:1],{8}5,5-7[8:1],
{8},8,{4}8-4b[8:1],{8}7,6,{4}5h[4:1],
{4}3>7[4:1],5,6<2[4:1],4,
{4}3V15[4:1],5,{8}6,6,{4}4b/8b,
{1}5x/7h[1:1],
{1}8h[1:1],
{1}1h[1:1],
{1}2h[1:1],
{1}Ch[1:3],
{1}B2/B3,
{1}B6/B7,
{4}1,8V24-6[4:1]/1>6[4:1],{2},
{2}8b,{8}2/7h[4:1],3,4,5,
{4}46,{8}57,57,,46,{4}4/6V83[4:1],
{2}2h[4:1],{4}3-8-6[4:1]/4,5,
{4}5,6,{8}6,5,4-8[4:3],3,
{1}2h[4:7],
{2},8bhx[4:1],
{4}2b/5b,{8}34,34,45,45,56,56,
{8}47,4/7-3[8:1],,7V15<4[8:7]/1h[8:5],{2},
{2},{4},{8},1bx/7bx-4-1[4:1],
{8},8,{4}8v5[8:1]*v3[8:1],8x,2-5[8:1]/6-1[8:1],
{4}2b/6b,{8}8,1/7>2[8:1],,3<6[8:1]/7,,38,
{8},78,{4}8-5[8:1]/7-5[8:1],78,3/4>5[8:3],
{2}1b/4,{8}3,3,24,1v6[8:1]/5,
{8},8,{4}8V27-3[4:3],5,4,
{4}3,{8}1x,1>4[8:1],,14,,6-8[8:1],
{8},5,{4}5>3[8:1],5<7[8:1],5-8[8:1]*-2[8:1],
{4}5x,3b/7b,{8}6,5<7[8:1],4,2bx-5-8[4:1],
{8},1,{4}1v6[8:1]*v4[8:1],1x,3-8[8:1]/7-4[8:1],
{4}3b/7b,{8}15,2/6<1[8:1],,3-5[8:1]/6,,38,
{8},78,{4}8-5[8:1]/7-5[8:1],8-2[8:1]/7-2[8:1],7/8w4[8:1],
{4}8x,26,{8}37,3qq4[8:3]/7qq8[8:3],,3b/7b,
{2},{8}1,3,{4}5<1[4:1],
{4}1>5[4:1],5<1[4:1],1b>5[4:1],5,
{4}Cf,28,{8}1,2,5<8[8:1],6,
{4}1b,2x/7x,{16}3,5,4,5,3,5,4,5,
{4}2-7[8:1],2/6-1[8:1],{8}6,2,8<5[8:1],4,
{4}8>3[8:1],8,{8}46,7,1-5[8:1],2,
{4}18,7>2[4:1],2>5[4:1],5<8[4:1],
{4}8,{8}1,1,{4}1-5[8:1],8>3[8:1]/1<6[8:1],
{4}1x/8x,{16}4,5,4,5,4,5,4,5,4,6,4,6,
{16}3,7,3,7,3,7,3,7,2,8,2,8,1-5[8:1],7,1,7,
{4}1x,{16}8,7,6,5,8,1,2,3,5,6,7,8,
{1}1/5h[1:1],
{2}1>8[2:3],E7,
{2}E5,{4}E3,{8}1,1,
{4}1h[4:1],7,68,57,
{4}4h[4:1]/6,5<6-8[8:1]*>4-2[8:1],,{8},B4/B5/B6/Cf,
{8},2-5[8:1],1,2,{4}1<5[4:1],{8}5,3,
{4}1V35[4:1],{8}4,6,7-4[8:1],8>3[8:1],7,8,
{8},4,4<7[8:1],3,{4}4,{8}12,38,
{8}47,6,25,1,78,7/8-4[8:1],1,5b,
{8},7-1[8:1],6,4,{4}3h[4:1],{8}4>1[8:1],5,
{4}6,{8}6,7,28,3-7[8:1],4,5b,
{8},6,6<1[8:1],5,{4}4,{8}4,3,
{8}25,6,47,3,26,26,26,26,
{16}3,5,3,5,{8}4h[16:1],{16}7,5,7,5,{8}6h[16:1],{16}2-6[8:1],8,1,8,
{64}2b>2<2b[4:13],Cf,{32},{16},{8},{4},{2},
{1},
{1},
{2},{4},{8},2bhx[8:3]/8bx,
{4},1-6-4[4:1],4>1[4:1],1-7-4[4:1],
{4}4,{8}2,2,3,4x-8b[8:1],35,2h[8:7]/4b,
{1},
{16}2-8[8:1],,,8,{8}2>7b[4:1],7,{4}E5f,{8},1x>3-7[4:1]/8x,
{8},5,{4}5v8[8:1]*v2[8:1],5x,3-8[8:1]/7-4[8:1],
{4}3b/7b,{8}15,2>5[8:1]/6,,2/7-1[8:1],,47,
{8},34,{4}4-1[8:1]/3-1[8:1],4-6[8:1]/3-6[8:1],3/4w8[8:1],
{4}4x,6qq7[4:1]/2qq3[4:1],,{8},8bxpp1<8[8:3]/4bxpp5>4[8:3],
{2},{4},6-1[8:1],
{4}3-8[8:1],3/5<4[4:1],{2}5/Cf,
{4}1b/8b,46,{8}7-3[8:1],6,1-6[8:1]*-4[8:1],2,
{4}1x,37,{16}2,8,1,8,2,8,1,8,
{4}3-6[8:1],3/7-4[8:1],{8}7,3,5<8[8:1],1,
{4}5>2[8:1],5,{8}17,6,4-8[8:1],3,
{4}45,6>3[4:1],3>8[4:1],8<5[4:1],
{4}5,{8}4,4,{4}4-8[8:1],5>2[8:1]/4<7[8:1],
{4}4x/5x,{16}1,8,1,8,1,8,1,8,2,7,3,6,
{16}4,5,4,5,3,5,3,5,4,6,4,6,3-8[8:1],5,3,5,
{4}3b,{16}7,6,5,4,8,1,2,3,5,6,7,8,
{1}Ch[1:1]f,
{1}8bxq1>8b[4:5],
{2},{4},{8}18,2h[8:9]/7,
{4},5,4,3,
{4}1,8-5-7[4:1]/2-5-3[4:1],{2},
E
Re:MASTER
最終更新:2026年02月07日 13:09