アットウィキロゴ

Phase: Theatre

アーティスト 藍月なくる

BPM BASIC ADVANCED EXPERT MASTER Re:MASTER
195 5 8 11+ 13+ -

EXPERT MASTER Re:MASTER
譜面制作者 サファ太 Jack -

BASIC


ADVANCED


EXPERT


MASTER

(195)
{2},{24}2,3,4,8,7,6,{4}1x,
{8}8b/A4f/E4,,,3b/B6/E6f,,,7b/B2/E3f,,
{8},4b/B7/E8f,,,{1}6b/A1f/B1/E1,{4},
{8}8x,8,17,17,{16}2,6,2,6,3q5<3b[8:7],5,3,5,
{2},{4},{8},Cf,

{4},{4}1x/7x,{8}2,2,1,3h[4:1]/8,
{8},1<6[8:1],2,1,,4>1[8:1],5,4,
{8},78,{4}1/6V47[16:3],{8}3,2,1,8>3[8:1],
{8},4,5,6,47,38,12,3bV52[16:3]/8b,
{8},6,{4}8-5-7[16:3],{8}1,3h[4:1],,1,
{8}8,5,4,2/6h[4:1],,8-4-8[16:3],1,2,
{2}2bh[4:3],{4},6-4>7-3[4:3],
{2},{4},{8},A1/B1f/E1,

{4},3h[4:1],{8}5,46,,7,
{4}56,{8}1,24,,8,{4}1/7<4[8:1],
{4}3,1,{8}7,46,,2,
{4}34,{8}6,57,,1,{4}2>5[8:1]/8,
{4}1x/2x,7h[4:1],{8}5,46,,3,
{4}34,{8}8,57,,3,{4}2/4-8[8:1],
{4}3,2h[4:1],{8}8,8,{4}17,
{8}2,1/2-5[8:1],,7p4[8:3],,78,{4},

{4}1b,2h[4:1],{8}1,2,3,48,
{8},6,5,4v1[8:1]/7,,5v8[8:1],,3,
{8},26,3,45,6,7-3[8:1],,8-4[8:1],
{8},1-5[8:1],,2-6[8:1],,8<3[4:1],,1,
{4}1hx[8:7],{8}2,3,4,5,6,7h[1:1],
{8},8,1,2,3,4,5,6-2[8:1],
{8},8,{4}8,{8}3-5[8:1],3,{4}2,
{8}7-1[8:1],7,{4}6,{8}4,4,35,26,

{2}1hx[4:1]/7b-3-6-4[1:1],8h[4:1],
{2}7h[4:1],{4}6,56,
{2}2q4[1:1]/8h[4:1],1h[4:1],
{2}2h[4:1],{4}3,34,
{4}1/7<4[4:1],4>1[4:1],1<6[4:1],6>3[4:1],
{4}3>8[4:1],8<5[4:1],5,2,
{16}3,5,3,5,2,6,2,6,1,7,1,7,{8}8x,2x-5[8:1]/6x-1[8:1],
{4},{8},3h[8:3]/7h[8:3],{4},{8},4b/5b,

{8},{16}2,1,{8}2,38,{16}7,5,6-1[8:1],5,{8}6,2,
{8},34,5,78,{16}2,1,2>5[8:1],1,{8}2,8,
{8},{16}7,8,{8}7,{16}2,3,{8}2,5/6-3[8:1],7,{8}1,
{8},{16}2,4,{8}3,56,78,7<4[8:1]/8>3[8:1],,7b/8b,
{8},5,6,7,12,1<6[8:1]/2>5[8:1],,1b/2b,
{8},4,3,2,78,7-4[8:1]/8,,3-8[8:1]/7,
{8},3/6-1[8:1],,2-5[8:1]/6,,2/8h[4:1],,4,
{16}28,3,4,5,1,2,3,4,8,1,2,3p2<4[16:13],{8}7,7hx[8:7],

{2},{4},{8},2b/6b,
{8},15,26,37,{4}4-1b[8:1]/8-5b[8:1],4x/8x,
{4}3h[8:1]/7h[8:1],{8}3x/7x,6,{16}2,4,3-8[8:1],4,{8}3,7,
{8},56,4,12,{16}7,8,7,8,{4}1-5[8:1]/6,
{4}18,{8}6,{16}6,5,{8}7,7,8,12,
{8}3,45,6,78,{16}2,3,4,5,{4}8-4[8:1],
{2}4w8b[8:1],{8}26,3,48,7,
{8}5b/6b,1b/8b,{4}3b/4bh[8:3],{8},5,{4}7pp2[4:3]/3pp6[4:3],

{2},{4},{8},3bh[4:1]/7bh[4:1],
{4},1x/5x,{8}7,7,8,1/6h[4:1],
{8},8>3[8:1],7,8,,5<8[8:1],4,5,
{8},12,{4}3V52[16:3]/8,{8}6,7,8,1<6[8:1],
{8},5,4,3,25,16,78,1b/6bV47[16:3],
{8},3,{4}1-4-2[16:3],{8}8,6h[4:1],,8,
{8}1,4,5,3h[4:1]/7,,1-5-1[16:3],8,7,
{2}7bh[4:3],{4},3-5<2-6[4:3],
{2},{4},{8},A8/B8f/E1,

{4},6h[4:1],{8}5,5,6,47,
{8},3,{4}34,{8}78,78,{4}1/6-4[8:1],
{4}2-6[8:1],7h[4:1],{8}8,8,7,16,
{8},3,{4}24,{8}5-1[8:1],6,{4}7<4[8:1],
{4}7x/8x,3h[4:1],{8}4,4,3,25,
{8},6,{4}56,{8}12,12,{4}3-5[8:1]/8,
{4}7-3[8:1],2h[4:1],{8}4,4,{4}35,
{8}8,1>4[8:1]/7,,1/6pp4[8:3],,5x/6x,{4},

{4}2x-8[8:1],2/6bh[4:1],{8}3x,5/6bh[4:1],,2x,
{4}5/6bh[4:1],{8}1x,5/6b,,2x/8x,{4}3b-8[8:1]/7b-4[8:1],
{4}3x/7x,{8}26,5,34,2-6[8:1],,1-5[8:1],
{8},8-4[8:1],,7-3[8:1],,1>6[4:1],,8,
{4}8hx[8:7],{8}7,6,5,4,3,2h[1:1],
{8},1,8,7,6,5,4,3-7[8:1],
{8},1,{4}1,{8}6-4[8:1],6,{4}7,
{8}2-8[8:1],2,{4}3,{8}5,5,46,37,

{1}2bh[4:1]/8xV26-4[4:3],
{8},3,4,5,2,3,4-6<3-5[1:1],5,
{1}6,
{8},6,5,4,7,6,5,4,
{8}2h[8:3],,4,4h[8:3],,5,5h[8:3],,
{8}7,7h[8:3],,1,{4}1-4[8:1],15,
{16}B6,B7,E8,A8,B2,B3,E4,A4,E7,B7,B8,E1,E3,B3,B4,E5,
{16}A7,E8,B8,B1,A3,E4,B4,B5,{4}C,1x/8x,

{4}3h[4:1],{8}4h[4:1],2,{4}2h[4:1],{8}4h[4:1],1,
{4}1h[4:1],{8}4h[4:1],8,{4}8>3[8:1],7,
{4}6h[4:1],{8}5h[4:1],7,{4}7h[4:1],{8}5h[4:1],8,
{4}8h[4:1],{8}5h[4:1],1,{4}1<6[8:1],2,
{8}3h[4:1],4,6h[4:1],5,2h[4:1],4,7h[4:1],5,
{8}1,3,5,7,48,37,26,1>4[8:1]/5,
{4},{8},8<5[8:1],{4},{8},Ch[8:5],
{2},{4},{8},1x/8x,

{4},3h[4:13],4,4,
{4}4,4,4,4,
{4}2,2,4,4,
{4}2,2,{8}4,1-4[8:1]/5-8[8:1],,1b/5b,
{8},4x>1[8:1]/8x<5[8:1],,4b/8b,,4x-7[8:1]/8x-3[8:1],,4b/8b,
{8},2x-5[8:1]/6x-1[8:1],,2b/6b,,4x-8b[8:1]/8x,,2bh[8:9],
{1},
{16}3,4,5,6,78,1,2,3,45,6,7,8,1p8<1[4:3]/2,3,{8}4h[8:7],

{2},{4},{8},A1/A8/B1/B8/E1f,
{4},{8}45,45,{4}7-4[8:1]/2-5[8:1],2b/7b,
{4}1h[8:1]/8h[8:1],{8}1x/8x,3,{16}7,5,6-1[8:1],5,{8}6,2,
{8},34,5,78,{16}2,1,2,1,{4}3-8[8:1]/8,
{4}3x/4b,{8}6,{16}6,5,{8}7,68,2,13,
{8}8-4[8:1],7,1-5[8:1],2,{16}6,7,8,1,{4}2<7[8:1],
{4}4>5[4:1],5b,{8}8x,7,4x/6x,3,
{8}8b-4[8:1]/1b-5[8:1],2b/7b,{4}1bx/8bx,{8},45,{4}6pp5[4:3]/2pp1[4:3],
{2},{4},{8},4bh[4:1]/8bh[4:1],

{4},2x/6x,{8}45,{16}7,8,{8}7,16,
{8},{16}2,4,{8}3,{16}6,5,{8}7,{16}2,1,{8}2,3x/8x,
{8},{16}6,5,{8}6,47,8,{16}2-5[8:1],1,{8}2,8,
{8},{16}7,8,{8}7x,{16}2,4,{8}3x,{16}6,5,{8}7x,3bV52[16:3]/8b,
{8},6,{4}8-5-7[16:3],{8}1,3h[4:1],,1,
{8}48,{16}7,5,{8}6,{16}3,4,{8}2,5v8[8:1]/1v4[8:1],{4}4>3-1b[8:1]/8<7-5b[8:1],
{2},{4},6qq3[4:3]/2qq7[4:3],
{2},{4},{8},2b/6b,
E

Re:MASTER


名前:
コメント:

タグ:

+ タグ編集
  • タグ:
最終更新:2026年02月07日 19:13