アットウィキロゴ

Sky Trails

アーティスト La prière

BPM BASIC ADVANCED EXPERT MASTER Re:MASTER
171 5 8 12+ 14+ -

EXPERT MASTER Re:MASTER
譜面制作者 サファ太 Luxizhel+カマボコ君+はっぴー -

BASIC


ADVANCED


EXPERT


MASTER

(171)
{8}6,,,5,,,4>7[4:5],,5,5,4,5,5,4,5,4,5,5,4,5,5,4,5<2[4:5],,
4,4,5,4,4,5,4,5,4,4,5,4,4,5,4>7[4:5],,5,5,4,5,5,4,5,4,5,5,4,5,5,4,5,,
{16}7,6,{4}5h[4:1],{16}6,7,{4}8h[4:1],{16}7,6,5,,2,3,{4}4h[4:1],{16}3,2,1,8,7,6,{4}5b,

{16}3h[8:5]/4,5,{4}6,{16}4,5,{4}6,{16}2h[8:5]/E4,E5,{4}E6,{16}D4,D5,{8}D6,,1,3,5,,
{16}6h[8:5]/5,4,{4}3,{16}5,4,{4}3,{16}7h[8:5]/E6,E5,{4}E4,{16}D6,D5,{8}D4,,8,6,4,,
{16}3h[4:1]/4,5,{4}6,{16}2h[4:1]/4,5,{4}6,
{16}1h[4:1]/E4,E5,{4}E6,{16}1h[4:1]/D4,D5,{8}D6,,1,3,5,6,
{16}6,5,4,3,6,5,4,3,7,6,5,4,3,2,{8}1-7[8:1],,
1-3[8:1],5-7[8:1],1-5[8:1],5-3[8:1],1,,{16}6,7,
{8}8pp3[1:2],,,4,4pp7[2:3]b,,{1},,{4}E8,E1,E2,{16}2,4,3,5,4,6,5,7,

{4}6,,7,5,{8}3,2,6h[8:1],4,3,5h[8:1],3,2,6h[8:1],4,3,3,E6,E5,E4,5,
6,7,3h[8:1],5,6,4h[8:1],6,7,3h[8:1],5,6,6,4,4,5,,
3q8[8:3],,8,8q5[8:3],,5,5q2[8:3],,2,2q7[8:3],,7,7q4[8:3],,4,,5pp4[4:5],,,1h[8:9],{2},,,
{16}6,,7,7,3h[8:1],,5,,6,,4,4,6,,7,,3h[8:1],,5,4,6,,7,,4,,5,,6,6,4,,
3,,2,2,6h[8:1],,4,,3,,5,5,3,,2,,6h[8:1],,4,5,3,,2,,5,,5,,{4}4^1[4:1],
1v4[4:1],4,5^8[4:1],8v5[4:1],5,4-1[8:1]*-7[8:1],4,8<4[4:1],
4>8[4:1],8<4[4:1],4<8>4[4:3],{1}8h[1:1],{8}5,4,

{4}3-5[8:1]/7,6-2[8:1],1-7[8:1],4V68-2[2:1],1,2,3,3-7[4:1],
7-2[4:1],2-6[4:1],6-3[4:1],3-8[4:1],8-5[4:1],5-2[4:1],{8}8,7,{4}6b^1[8:1],
B7/B8/C,2^5[8:1],B3/B4/C,7-3[8:1],1b,{8}2,4,5,7,{4}4-2[8:1]/8-4[8:1],
48,5-7[8:1]/1-5[8:1],5/1^4[8:1],Cf,{8}7,8,1,2,{16}5,4,3,2,5,6,7,8,
{8}12,81,78,56,45,3b/4b,,56,,45,{4}4^1[8:1]/5^8[8:1],4x/5x,C,
B2/B3/E3/B6/B7/E7,{8}E8,E1,E2,Chf[8:11],,
B2h[16:15]/B3h[8:7]/E3h[16:17]/B6h[16:13]/B7h[4:3]/E7h[1:1],,,,{1},
{8}8hx[8:3],,,E4h[4:5]/B4h[4:5]/E5h[4:5],,

{24}B2f,B1,B8,B7,B6,,,,,E3f,E2,E1,E8,E7,,,,,A2f,A1,A8,A7,A6,,{8},,
8<4[8:1],8,2h[4:1],,E6h[4:5]/B5h[4:5]/E5h[4:5],,
{24}B7f,B8,B1,B2,B3,,,,,E7f,E8,E1,E2,E3,,,,,A7f,A8,A1,A2,A3,,{8},,
1-4[8:1]*-6[8:1],1,,,2x/7x,,
3v6[8:1]/6,,3/8-4[8:1],7,{4}5-1[8:1],5/3q7[8:1],
3/8^3[8:1],{8}8/5v8[8:1],4,{4}1-4[8:1]*-6[8:1],1b,
37,{8}12,{4}1-4[8:1]/2-7[8:1],1b-5[8:1]/2b-6[8:1],1b/2b,
{32}7x,6,5,4,3,2,1,8,{8}7,{4}5x,4/A8h[4:5]/B8h[4:5]/E8h[4:5],

{24}B5f,B4,B3,B2,B1,,,,,E6f,E5,E4,E3,E2,,,,,A5f,A4,A3,A2,A1,,{8},,
5>1[8:1],5,6h[4:1],, A1h[4:5]/B1h[4:5]/E2h[4:5],,
{24}B4f,B5,B6,B7,B8,,,,,E4f,E5,E6,E7,E8,,,,,A4f,A5,A6,A7,A8,,{8},,
6-1[8:1]*-3[8:1],6,,,4/8<2[4:1],,
28,,1,1-5[8:1],8-3[8:1],1,8<2[4:1],,
28,,1,1-6[8:1],8-3[8:1],1,8-4[8:1]*-5[8:1],,
8,,1-4[8:1]*-6[8:1],28,1,,5^2[8:1]*^8[8:1],46,5,,12,37,,15,1-3[8:1]/5,,

1-7[8:1]/E6f/E5h[4:5],,1^3[8:1],E4f,1^7[8:1],,1-3[8:1]/E6f,,
1-7[8:1],E4f,1^3[8:1],,{24}1/B5,B6,E7,{8}A7,8x-6[8:1]/4,,
8-2[8:1]/E4f/E5hf[4:5],,8^6[8:1],E6f,8^2[8:1],,8-6[8:1]/E4f,,
8-2[8:1],E6f,8^6[8:1],,{24}8/B4,B3,E3,A2,,,{4}1x-4[8:1],
1/6<3[4:1],6/3>6[4:1],5-1[8:1],5,2V46[4:1],6V82[4:1],2,6,
8^3[8:1]/4,{8}84,{4}5w1[8:1],5,{32}28,37,46,5,{8},37,3-8[8:1]/7-4[8:1],,37,,1-3[8:1]/5,,

1-6[8:1]/E5f/A4hf[2:3],,1^3[8:1],E4f,1^6[8:1],,1-3[8:1]/E5f,,
1-6[8:1],E4f,1^3[8:1],,1/E5,,8-6[8:1]/4,,
8-3[8:1]/E5f/A5hf[2:3],,8^6[8:1],E6f,8^3[8:1],,8-6[8:1]/E5f,,
8-3[8:1],E6f,8^6[8:1],,8,,4,,
{4}3V16[4:1]/7V52[4:1],,,A1/D1/A8/A4h[2:1]/D5hf[2:1]/A5h[2:1],
{32}7b,8,1,2,3,,,,2b,1,8,7,6,,,,7b,8,1,2,3,4,5,6,7,8,1,2,3,4,5,6,
{8}7b,,5x/6x,{4}3x/4x,2-6[8:1]/3,2/8V24[4:1],{8}5,{4}5^2[8:1]*^8[8:1],5,3b/7b,

{8}1h[1:2],,6-3-8-5-1-4[4:5],6,{2},,,
{8}5h[1:2],,2-7-4-1-5-8[4:5],2,{2},,,
{8}1h[1:2],,6-1-5-8-4-8[4:5],6,{2},,,
{8}E1h[2:1],,3,2,{32}4,5,6,7,8,1,2,3,{4}4-8[8:1],
4-2[8:1]*-6[8:1],4w8[8:1],4,2bx/6bx,

{8}1-6[8:1]/5,,1^4[8:1],4-8[8:1],1,7,6-2[8:1],,
6/3-8[8:1],4,{16}7-4V61[4:1],6,5,,1-5[8:1],2,3,,2,3,4,,
{8}3/7^2[8:1],,7-4[8:1],4-8[8:1],7,1,3-7[8:1],,
3/6-1[8:1],5,{16}2-5V38[4:1],3,4,,8-4[8:1],7,6,,7,6,5,,
{8}2^7[8:1]/6,,2v5[8:1],5V31[16:3],2,7,6-1[8:1],,
{16}2-5[8:1],3,4,,8-4[8:1],7,6,,1-5[8:1],2,3,,{4}15,
37,{8}2-7[8:1]/6-3[8:1],37,{4}26,15,
{24}E2f/E6,B2`B6,B3`B7,E4`E8,A4h[6:1]/A8h[6:1],,,,,
A7f/A3,D7`D3,A6`A2,D6h[24:5]/D2h[24:5],,,,,,
E3f/E7,E4`E8,E5`E1,{1}E2h[8:7]/E6h[8:7],{8}1-5[8:1],,
1^4[8:1]/7,8-4[8:1],1-6[8:1],8-3[8:1],1-5[8:1],8^5[8:1],1,

8,,4,3,24,13,8,75,64,5,{16}7,8,1,2,6,7,8,1,5,,5,,3,4,2,5,1,6,8,7,8,1,2,3,5,6,7,8,
14,,{24}3,2,3,2,,,7,6,7,{16}6>1[4:1],,8,,1,8,7,6,
5,,2-5[8:1],3,4,,2,,8-4[8:1],7,6,,82,,1,,
{32}1,2,3,4,8,7,6,5,2,3,4,5,7,6,5,4,1v4[8:1]*v6[8:1],2,3,4,5,6,7,8,{4}1b,
{12}7^5[8:1],8,1,2^8[8:1],3,4,5^3[8:1],6,7,8,1,2,
{24}36,,,5,4,6,5,,,1,8,2,1<3[4:1]b,,,38,,,{1}Cf/B2hf[16:1]/E2hf[8:1]/E3hf[16:3],,,,E

Re:MASTER


  • MASTER譜面を追加しました。後ほど見やすいよう改行等の修正を行います。 -- けもがみ (2026-02-06 20:00:12)
  • 譜面データが見やすいよう改行を行い調整しました。 -- けもがみ (2026-02-06 20:53:28)
  • 花火エフェクトの付け忘れがあったため修正しました。 -- けもがみ (2026-02-06 23:22:40)
名前:
コメント:

タグ:

+ タグ編集
  • タグ:
最終更新:2026年02月07日 12:24