アットウィキロゴ

Kiss Me Kiss

アーティスト 曲:大畑拓也/歌:bitter flavor [桜井 春菜(CV:近藤 玲奈)、早乙女 彩華(CV:中島 唯)]

BPM BASIC ADVANCED EXPERT MASTER Re:MASTER
140 3 6 9+ 12+ -

EXPERT MASTER Re:MASTER
譜面制作者 はっぴー Jack -

BASIC


ADVANCED


EXPERT


MASTER

(140)

{4}4h[8:3]/6,{8},5,{4}3/5h[8:7],{8},{4}4,4,{8}4,{2}4>1[8:1]/5<8[8:1],{4}B3/B6/Cf/E3/E7,

1/8,{16}3h[16:3]/5,,,2h[16:3],,,{4}1h[4:1],{8}8,7,6,4,5,3,2,{4}1>4[8:1]/7,1x/5x, {16}7h[16:3],,,6h[16:3],,,{4}5h[4:1],{8}4,3,2,1,2/8,
{4}3x/7x,1-5[8:1]/5,1x/8x,{16}4/6h[16:3],,,7h[16:3],,,{4}8h[4:1],{8}1,2,3,5,4,6,7,{4}2/8<5[8:1],4x/8x,{16}2h[16:3],,,3h[16:3],,,{4}4h[4:1],{8}5,6,7,8,1x/7x,{4}2x/6x,

3h[4:1],{8},2/4,{4}2h[4:1]/4h[4:1],{8},{4}1,2/3,{8}4,{4}4-2[8:1],8-4[8:1],1xh[4:1],{8},2/4,{4}2h[4:1]/4h[4:1],{8},{4}1/3,3/4,{8}1/2,{4}1/2h[8:1],3h[8:1]/4-8[8:1],1h[4:1],{8},5/7,{4}5h[4:1]/7h[4:1],{8},{4}8,6/7,{8}1/5,{4}1-5[8:1]/5-7[8:1],,4xh[4:1]/8xh[4:1],{8},5/7,5/7V51[4:1],,4,4h[4:1],,8,7,6,7/8,7/8,1x/6x,,
3h[4:1]/8,,4x,3,1h[4:1],4x,4x,2h[4:1],,4,2x,4,3,1/2x,1/2x,3,4h[4:1],,3x,4,2h[4:1],3x,3x,1h[4:1],,2,1x,2,3,1x/4,1x/4-8[8:1],,6h[4:1],,5x,6,8h[4:1],5x,5x,7h[4:1],,5,7x,5,6,7x/8,7x/8,6,5h[4:1],,6x,5,7h[4:1],6x,6x,8h[4:1],,5,8xq1[8:3],1,{2}1,

{8}4/5,{16}3,4,2,,6,5,{8}7,1/8<5[8:1],,4,3,2,1h[2:1],E7,E6,E5,E4,E3,1/8,{16}7,8,7,,2,1,{8}2,3,4>1[8:1],5,6,7,8,8h[8:3],,E5,C,E1,2/7,
{16}3,4,2,,6,5,{8}7,1/8,,4/5,3>6[4:1],6,5,,,8,8,8,1h[4:1],,8,{4}2/7<4[4:1],4>1[4:1],1<6[4:1],6>3[4:1],3,{8}1,1,1,2x/8x,3,3,1x/7x,6,6,1x/8x,,,2h[8:1],4h[8:1],5h[8:1],7xp2[8:1],

2,,,{4}1bv4[8:1]/8b-5[8:1],1x/8x,{8}2x/7x,2x/7x,,7h[4:1],5,8h[4:1],4,1h[4:1],3,2-6[8:1],8,8,,4/8,4/8,,1/5,1-5[8:1]/5,7,7h[4:1],,5>7[4:1],3>6[4:1],1<5[4:1],,5x,3x,1b,,,{1}4qq1[2:1]/8qq5[2:1],{8}2/4,3,5/7,6,2/4,3,5/7h[4:1],4,3,2h[4:1]/4,5,6,7,1x/8x,,4x/5x,4/5,7x>2[8:1]/3x<6[8:1],2x/6x,3x/7x,,
B4/B8/Cf/E1/E5,,,2-6[8:1]/6,,4x,8x,,2h[4:1],4,1h[4:1],5,8h[4:1],6,7-3[8:1],1,1,,1/5,1/5,,4/8,3/7,2/6,1/5h[4:1],,6<4[4:1],5,5,,7x,8x,1x,{4},5qq5[8:3]*pp5[8:3],5x,,3/7,1>4[8:1]/5x,1x/8<5[8:1],4/8x,{8}2x/4,3,4,5/7x,6,5<4[2:1],3,{4}1b/5,,,

{8}3,3,3,2,{4}2-5[8:1],1-6[8:1],2q5[4:1],1,{8},6,6,,7-3[8:1],8,7,,7-3[8:1],8,7,,7-3[8:1],8,7,,7,{4}7-4[8:1]/8-3[8:1],7/8,2/6,
{8}3h[4:1],1,4h[4:1],1,3h[4:1],1,4h[4:1],1,5h[4:1],8,6h[4:1],8,5h[4:1],8,6h[4:1],8,{16}5-1[8:1],,,8,,,{4}4-8[8:1],1>8[1:1],{1}Ch[1:1],,{8},

{8}1xh[4:1]/4xh[4:1],,,2-6[8:1]/3-8[8:1],,2x/3x,,5x/7x,,6x/8x,,5x-1[8:1]/7x,,8,8,8,,3/4,2/5,,5/6,4/7,8,{4}1h[2:1],,Ch[4:1],{8}E3,E7,Cf,,,
{4}1pp4[2:1]/5pp8[2:1],,,,{8}5/7,1,2/4,8,5/7,1,2[4:1]/4,8,6,5/7h[4:1],1,3,4/5,2x/7x,,1/8,1/8,2x<7[8:1]/6x>3[8:1],3x/7x,2x/6x,,
B1/B5/Cf/E1/E5,,,{4}2V48[4:1]/7V51[4:1],2x/7x,{8},2/7h[4:1],5,8h[4:1],4,1h[4:1],3,2q7[8:1],8,8,,1/5,1/5,,3/7,2/6,1/5,4/8h[4:1],,7<4[8:1],4>1[8:1],C,,8b,1b/7b,2b/6b,,
,{4}4qq4[4:1],4pp4[4:1],8,8-4[8:1],4/8>3[8:1],4/8<5[8:1],4/8,{8}2x/4,3,4,5/7x,6,5-1[8:1],4,4x,,2/8,5,1/7,4,2/6,{4}3-6[8:1]/7-2[8:1],3b/7b,

4/8,{16}6,5,,5,{8}6,4h[8:1]/7h[8:1],,4/7,3/6,2/5,{12}3,4,2,6,5,7,{4}1w5[8:1],1x,{8}3/7,3x/7x,1xh[4:1]/5x,,{12}8,8,8,2,2,2,6,6,6,4,4,4,
{4}5-1[8:1],1,{16}3,4,,4,{8}3,2h[8:1]/5h[8:1],,2/5,3/6,4/7,{12}6,5,7,3,4,2,{4}8w4[8:1],8x,{8}2/6,2x/6x,{4}4xq5[4:1]/8x,,,{8}7-3[8:1],2-6[8:1],7b,2b,E

Re:MASTER


  • 追加しました。シアミラ(2026-02-06 23:21:08)
名前:
コメント:

タグ:

+ タグ編集
  • タグ:
最終更新:2026年04月10日 20:34