アットウィキロゴ

花となれ

アーティスト 雄之助 feat.音楽的同位体 可不(KAFU)

BPM BASIC ADVANCED EXPERT MASTER Re:MASTER
130 2 6 8+ 12 -

EXPERT MASTER Re:MASTER
譜面制作者 アマリリス はっぴー -

BASIC


ADVANCED


EXPERT

(130){1},
{2}4h[2:1],5h[2:1],6h[2:1],7h[2:1],6h[2:1],5h[2:1],4h[2:1],3,{4}4,53,4,52,4,53,4,52,5,46,5,74,{2}5<8[4:1],1,
6/2V46[8:3],,7h[4:3],{4}5,5,4/6>2[8:3],,,,3,4,54,,3/7-5-2[8:3],,,,2h[4:3],,4,4,5/3<5-7[8:3],,,,8,17,2x/6x,,54,7,54,75,4h[4:1],5h[4:1],6h[4:1],7,81,3,81,13,8-3-6[8:3],,,,5x/6h[4:1],8bx,56,87,6h[4:1],7h[4:1],8h[4:1],1,72,56,34,{8}12,12,,8<6[4:1]/3<5[4:1],{4},,,
{1}1h[4:13]/7x<3[2:1],3x<7[2:1],7x<8[1:1],{2},72,5h[1:2]/3x>7[2:1],,7x>3[2:1],,B5/B4/Ch[1:1],,{4}8x,8x,8x,7bx/2bx,
56,87,34,12,{8}3,3,5,5,{4}4,35,3-8[8:1]/4-7[8:1],,6-1[8:1]/5-2[8:1],,3h[4:1]/8h[4:1],,74,65,34,1x/2x,34,56,7h[4:1],5h[4:1],4h[4:1],2,81,56,34,{8}12,2>1[8:5]/1<2[8:5],{1},{4}3b/4b,12,56,87,{8}6,6,4,4,{4}5,46,6-1[8:1]/5-2[8:1],,3-8[8:1]/4-7[8:1],,1h[4:1]/6h[4:1],,52,34,12,54,82,56,8h[4:1],6h[4:1],5h[4:1],3,12,54,86,54,{1}7<5p8[4:2]/2>4q1[4:2],
{4}12,87,12,8/7h[1:1],5,4,3,2,34,75,34,5/7h[1:1],8,1,2,3,{8}4x,4x,{4}1bx/3bx,82,1/3h[1:1],4,5,6,7,54,13,54,86,5/4>5[2:1]b,,,8bx,E

MASTER

(130)
{8}6h[4:1],,4h[4:1],,5p3[2:1],5h[8:7],,,
{2},E5,
{8}3h[4:1],,5h[4:1],,4q6[2:1],4h[8:7],,,
{2},E5,
{4}6h[2:1],E5,5qq2[4:3],E7,
{4},E8,,E5,
{4}3h[2:1],E5,4pp7[4:3],E3,
{4},E2,1h[2:1],,
{8}8V27-3-6-4[4:5],8h[8:15],,,,,,,
{1},
{2}2h[2:1],4h[2:1],
{8}5,,3/6,3/6,,7,7,,
{8}1V38-4-7-5[4:5],1h[8:15],,,,,,,
{1},
{2}7h[2:1],5h[2:1],
{4}4,2/7,2/7,4b/5b,
{4}3<6[8:1],7,2>5[8:1],6,
{4}1>4[8:1],5,8>3[8:1],4,
{2}1-4[8:1]/5-8[8:1],4-1[8:1]/8-5[8:1],
{2}1-4[8:1]/5-8[8:1],4b/8b,
{4}6b>3[8:1],2,7<4[8:1],3,
{4}8<5[8:1],4,1<6[8:1],5,
{2}3-8[8:1]/7-4[8:1],2pp5[2:1]/6pp1[2:1],
{2},8h[2:1],
{4}6b>1[4:5],,E3,E4,
{4}E5,E6,E7,,
{2}7>2[2:1],3p7[2:1],
{2}6>3[2:1],1h[2:1],
{4}3<8[4:5],,E7,E6,
{4}E5,E4,E3,,
{1}B3/B6/Ch[1:1],
{4}E1,B2/B7/C,B4/B5/E5,A3/A6/B3/B6/Cf,
{8}8-4[8:1],,8b/2-6[8:1],,7,7,5>1[4:1],,
{4}6,4<8[4:1],3,5V31[4:1],
{4}1V75[4:1],5V31[4:1],1V75[4:1],5V31[4:1],
{8}1b,E8,E7,E6,A4/D4,A5/D3,A6/D2,,
{4}7-4[8:1]b/8-3[8:1]b,7b/8b,2-5[8:1],1-6[8:1],
{4}3-8[8:1],4-7[8:1],2-5[8:1],7h[1:1],
{4},5,6,{8}8>4[4:1]*<4[4:1],8,
{4},,3/5,{8}2b/6b,2b/6b,
{8}1-5[8:1],,1b/7-3[8:1],,2,2,4<8[4:1],,
{4}3,5>1[4:1],6,4V68[4:1],
{4}8V24[4:1],4V68[4:1],8V24[4:1],4V68[4:1],
{8}8b,E2,E3,E4,A5/D6,A4/D7,A3/D8,,
{4}1<6[8:1]/2>5[8:1],1/2,7<4[8:1]/8>3[8:1],7/8,
{4}2-6[8:1],7-4[8:1],8-3[8:1],6-1[8:1],
{4}5-2[8:1],7-4[8:1],3-8[8:1],5>6[8:5],
{1}Cf,
{4}3>1[8:1],4,4<6[8:1],3,
{4}3>1[8:1],5<7[8:1],4-1[8:1],{8}5,5,
{4}6<8[8:1],5,5>3[8:1],6,
{8}7h[4:3],E8,E7,E6,E2,E3,E4,,
{4}1-5[8:1]/2-6[8:1],1b/2b,4>2[8:1],5,
{4}6<8[8:1],4>2[8:1],5-8[8:1],{8}4,4,
{4}3>1[8:1],4,4-6[8:1],3>5[2:1],
{4}7h[2:1],,,{16}E6,B5,B4,E4,
E

  • 追加しましたexpert -- やあきましゅう (2026-02-07 16:14:43)
名前:
コメント:

タグ:

+ タグ編集
  • タグ:
最終更新:2026年07月09日 21:39