アットウィキロゴ

エスオーエス

アーティスト カロンズベカラズ

BPM BASIC ADVANCED EXPERT MASTER Re:MASTER
196 5 7+ 10+ 13+ -

EXPERT MASTER Re:MASTER
譜面制作者 鳩ホルダー はっぴー -

BASIC


ADVANCED


EXPERT


MASTER

(196){8}
2bh[4:1]/6b,,4,4,,7,7,5pp4^1[2:1]/6,,,,,,,6x,,
{16}2,4,{8}3,45,36,,47,6,35,{4}2b/6b,D6/D8/A7/E6/E7f/B6,Cf/E5/B4/B5,D2/D4/A3/E2/E3f/B2,
6-1[8:1],46,3-8[8:1],{8}7,7^2[8:1],,3^6[8:1]/7,,3/7h[4:1],,8,16,,
3-8[8:1],,35,,6-1[8:1],,2,2^7[8:1],,2/6^3[8:1],,2h[4:1]/6,,1,38,,
7-4[8:1],,47,,2-5[8:1],,6,6^1[8:1],,2^5[8:1]/6,,2/6h[4:1],,4,37,,
2-5[8:1],,25,,7h[4:1],,5,48,,24,,5-1[8:1]/7-3[8:1],,5x/7x,,,

8xw4[8:1],,8x,,,35,3/5-7[8:1],,4pp2[8:3],,8,8,,7h[4:1],,4,
4,,15,1s5b[8:3]/5,,6,,7,,8<3b[4:1],,2,,1,1,4,
4pp6[8:1]*qq2[8:1],,,,,46,4-2[8:1]/6,,5qq7[8:3],,1,1,,2,2,8,
8-4[8:1],,3,3h[4:1],,6,27,18,,47,{4}47,25,4b/6b,

3b/5b,2/D7f/A7/E7,1/E5f/B4/B5,8/D3f/A2/E3,3-8[8:1],4,5^2[8:1]/6^1[8:1],,
34,1/D7f/A6/E7,7/E5f/B4/B5,8/D3f/A3/E3,2-7[8:1],4,5-1[8:1]/6-2[8:1],,
34,2/D7f/A7/E7,1/E5f/B4/B5,8/D3f/A2/E3,3-6[8:1],7-2[8:1],3-6[8:1],7,
58,1/D7f/A6/E7,1/E5f/B4/B5,8bx/D3f/A3/E3,2bx/D7/A7/E7f,3bx/E5f/B4/B5,6bx/D3/A2/E3f,1b/8b,

2^5[8:1],5,{8}6,6,5,,3,4,5,4h[4:1]/6h[4:1],,,3,2-6[8:1],
,7,8,8-4[8:1],,3,3,,16,1>5[4:1]/6,,5<1[4:1],,1V35[4:1],,5V71[4:1],
,1,,5,,46,46,,17,17,,35,35,,2-6[8:1],,
2/7-3[8:1],,2,1-5[8:1],,14,,2-7-1[4:1]/6-3-5[4:1],,26,,,,,1-6[8:1]*-7[8:1],,

1^4[8:1],,1/5-8[8:1],,3x/5,,3,2V46[4:1],,6>1[4:1],,7,,8,,1-5[8:1],
1,6-2[8:1],6,3-7[8:1],3,8V64[4:1],,4,,3,3,,57,57,,24,
15,,6^1[4:1],6,4,,3^8[4:1],3,{4}5,6-1[8:1],2-5[8:1],7-2[8:1],
3-6[8:1],8^5[8:1],4^1[8:1],{8}7,7h[4:1],,8w4[8:1],,,,2bx/6bx,2bx-8[8:1]/6bx,,
2/5-8[8:1],,1-3[8:1]*-4[8:1]/5,,1,,2x/5x,2x/5x,,3^8[8:1]/4^7[8:1],,34,,1x/6x,1x/6x,,
8^5[8:1]*^3[8:1],,8,,1,1h[4:1],,6^3[8:1],,2,{4}2h[4:1],1,7-4[8:1]/8,
3-8[8:1]/7,3/7-2[8:1],3-6[8:1]/7,3/7-3[8:1],2^5[8:1]/7,2/8w4[8:1],8b,2b/6b-4-8-3[8:3],
,,{8}1x,1x,{4}3b-6[8:1]/7b-2[8:1],3b/7b,,1s5[8:1],1b,

6x-1[8:1],46,3-8[8:1],{8}7,7^2[8:1],,3^6[8:1]/7,,3/7h[4:1],,8,16,,
3-8[8:1],,35,,6-1[8:1],,2,2^7[8:1],,2/6^3[8:1],,2h[4:1]/6,,1,38,,
7-4[8:1],,47,,2-5[8:1],,6,6^1[8:1],,2^5[8:1]/6,,2/6h[4:1],,4,37,,
2-5[8:1],,25,,7h[4:1],,5,48,,24,,5-1[8:1]/7-3[8:1],,5x/7x,,,

,2,{4}2,
3/5-8[8:1],3,3,3,3/8^5[4:1],3,3,3,
35,35,34,34,36,{16}36,,4,5,4,5,4,5,{8}4,,
3-1[8:1],,35,,6,6,4,,35,,26,26,,7,7,6,
5,4,3,2h[4:1],,4,15,1-5[8:1]/5,,6,7-3[8:1],,2,,15,,
24,24,,6,57,5-1[8:1]/7,,5/6-2[8:1],,46,,37,37,,6^1[8:1],,

4,,3^8[8:1],,5,5,,46,,3,2h[4:1],4,6h[4:1],4,3,3,
34,5,6,7,18,2,35,6-1[8:1],,4,3-8[8:1],,5,,1b/6b,,
24,3,57,6,14,3,58,6,24,1,78,6,45,3,1-5[8:1]/2-6[8:1],,
,,47,47,,25,,46,46,,D6,B6,E5,B3,D4,,

1-5[8:1],,16,,8-4[8:1],,38,,2,34,7,56,3,45,6,7h[4:1],
,8,1,2h[4:1],,1,8,7,46,{4}4/6-2[8:1],1-4[8:1]/6,1/5-7-4-8-3-1[8:7],3h[8:7],
,,,,{8}1x/2x,1x-4[8:1]/2x-4[8:1],,1-6[8:1]/2-6[8:1],,1>8[8:5]/2,,
Cf,,,,,,,1x/8x,,36,36,,,,3-1[8:1]/7-1[8:1],,

3-5[8:1]/7-5[8:1],,3-8[8:1]/7-3[8:1],,3b/7b,,1x,1x>5[4:1],,5<1[4:1],,1,,5,5,,
3-6[8:1]/4-8[8:1],,34,,7,7^2[8:1],,5,5,,46,46,,34,,25,
2-4[8:1]/5-1[8:1],,25,,4x-8[8:1]/7-5[8:1],,47,,2-4[8:1]/5x-1[8:1],,25,,7,7,5,,
2/4-8[8:1],,1-4[8:1],,6^1[8:1],,5,5,,3/7p3[8:1],,1,1,,2-8[8:1]/6-8[8:1],,
2-4[8:1]/6-4[8:1],,2-6[8:1]/6-1[8:1],,2b/6b,,4x/8x,4-2[8:1]/8x,,6-8[8:1],,5-1[8:1],,7,7,,
2^5[8:1]/8^5[8:1],,28,,37,37,,28,,57,{4}57,24,1^8v6b[8:1]/8,
1^4[8:1]*v4[8:1],1^8v6b[8:1],1^4[8:1]*v4[8:1],1^8v6b[8:1],1^4[8:1]*v4[8:1],1^8v6b[8:1],1b,3,
{8}26,7,18,2,34,5,2b-5[8:1]/6b-1[8:1],,2b/6b,,,,1bs5[8:1],,1b,,

7x-1[8:1],,4/7-3[8:1],,5-1[8:1]/7,,8,8^5[8:1],,4-1[8:1]*-7[8:1],,,,2x/6x,2x-4[8:1]/6x,,
2-8[8:1]/5,,2-6[8:1]/5,,2/4-8[8:1],,1,1^4[8:1],,5-2[8:1]*-8[8:1],,,,3x/7x,3x-5[8:1]/7x,,
3-1[8:1]/8,,3-7[8:1]/8,,3/8-4[8:1],,2,2^5[8:1],,8-3[8:1]*-5[8:1],,,,2x/6x,2x/6x-4[8:1],,
1/6-8[8:1],,1/6-2[8:1],,16,,38,3/8-4[8:1],,2-6[8:1]/8,,25,,{32}1s5b[8:1],2,3,4,5,6,7,8,{1}1bx,E

Re:MASTER


名前:
コメント:

タグ:

+ タグ編集
  • タグ:
最終更新:2026年04月12日 09:12