アットウィキロゴ

トリアージ

アーティスト niki feat.noire

BPM BASIC ADVANCED EXPERT MASTER Re:MASTER
180 2 7+ 10 13 -

EXPERT MASTER Re:MASTER
譜面制作者 華火職人 シチミヘルツ -

BASIC


ADVANCED


EXPERT


MASTER

(180)
{8}56,,47,,5,4,3,2h[8:7]/5,
{4},,
{8}4,,4,,25,E4,E5,E6,Ch[8:3],,,
{4}E8/B7,E2/B2,8h[4:1],{8}1,1,,
{4}17,26,35,
{8}3,4,,4,3,,
{4}2/5h[4:8],1,C,,,,
{4}6,6,6,47,
{8}2,2,6,5,12,1-4[8:1]/8,,4,,
{8}8,3,4,78,8-5[8:1]/1,,5,,
{8}1,6,5,12,8-5[8:1],1,8-3[8:1],,
{4}8^5[8:1],8^3[8:1],1b,{8},
{8}57,8,3,4,78,8-5[8:1]/1,,5,,
{8}1,6,5,12,18,,{16}3,4,3,,
{8}25,,7,56,,24,24,,18,27,,
{8}6^1[4:1],,1^6[4:1],,2,,,
{8}4,4h[4:1],,3,3-8[8:1],,,,,,
{8}2^5[8:1],,2,,
{8}1,1-4[8:1],,
{8}8-5[8:1],,2-5[8:1],,7-4[8:1],,1q8[8:3],,,,,
{8}1h[8:5],,,,
{8}2,2-7[8:1],,6,6-1[8:1],,,,,,
{8}7^4[8:1],,7,,
{8}8,8-5[8:1],,1-4[8:1],,7-4[8:1],,2z6[8:3],,,,,,
{8}27,,45,,5-3[4:1],,B7,,E8,,
{8}5,,5-3[4:1],,B7,,E8,,
{8}5,,5qq3[4:1],,B7/E8,,,,
{8}5,46,,4,35,,
{8}2^7[4:1],,4,,4-6[4:1],,B2,,E2,,
{8}4,,4-6[4:1],,B2,,E2,,
{8}4,,4pp6[4:1],,B2/E2,,,,
{8}4,35,,5,46,,
{8}28,,37,,
{8}43,4,42,4,41,,26,,
{8}56,5,57,5,58,,26,,
{16}2,1,38,,,,
{8}15,1w5[8:1]/5,,1b,,,,
{8}2-7[8:1]/6-3[8:1],,,,1-5[8:1],,
{8}4h[4:1],,6-2[8:1],,7^2[8:1],,3h[4:1],,
{8}4-7[8:1],,1-6[8:1],,8,,
{8}7^4[8:1],,7^2[8:1],,7-4[8:1],,7V13[8:1],,7,,
{8}5-1[8:1]*-8[8:1],,5,,37,,2h[16:3]/8,
{16},4,3,,25,,{8}1-5[8:1]/6,,8,,
{8}3^8[4:1],,8^5[4:1],,5^2[4:1],,
{8}1-7[8:1],,1-6[8:1],,1-3[8:1],,1-4[8:1],,1z5[4:1],,,,,,

{16}6,5,,3,4,,56,,7/8-4[8:1],,,,
{8}1h[4:1],,3-7[8:1],,2^7[8:1],,
{8}6h[4:1],,5-2[8:1],,8-3[8:1],,1,,
{8}2^5[8:1],,2^7[8:1],,2-5[8:1],,2V86[8:1],,2,,2qq3[8:3],,4h[4:1],,,,
{8}6,57,,26,1^4[8:1]/5^8[8:1],,1-6[8:1]/5-2[8:1],,,,,,,,
{8}1-4[4:5]/8,,1/8-5[4:5],,,,,,,,,,,,,,
8<1[4:7],,8,,,,,,,,,,8h[1:2],,,,,,
{8}2-7[8:5],,,,,,,,,,6^3[1:1],,,,,,6h[4:3],,,,,,,{16}26,37,4b/8b,,,,{12}3,4,2,6,4,7,2,4,3,
{8}8-3[4:3],,8,,1,,1,,
{8}2-5[4:3],,2,,3,,3,,4,,4,,
{8}35,,{12}6,5,6,3h[4:1],,5,4,6,5,
{8}6^3[4:2],,,,1-6[4:3],,1,,
{8}8,,8,,7-4[4:3],,7,,6,,6,,
{8}5-8[4:3],,5,,4,,4,,
{12}2,1,2,7,8,7,5,6,5,4,3,4,
{8}1b^4[2:3],,,,,,,,,,,,1b,,,,
{8}3/5h[4:6],,,,,,,,6,,6,,6,,
{16}5,5,5,5,
{8}6,4,7,{16}2,1,2,,
{8}1/8-5[8:1],,5,,
{8}6,4,{16}7,8,7,,
{8}8/1-4[8:1],,4,,
{8}3,5,{16}2,1,2,,
{8}8-5[8:1],1,8-3[8:1],,
{8}8^5[8:1],,8^3[8:1],,1b,,,
{8}37,6,5,{16}7,8,7,,
{8}8/1-4[8:1],,4,,
{8}3,5,{16}2,1,2,,
{8}1/8,,{16}3,4,3,,
{8}2/5,,7,56,,15,26,,48,26,
{8},,,,,
{4}3^6[4:3],,,,3^6[4:3],,,,3^6[4:3],,,,
{8}8-5[8:1],,18,,
{16}1,8,7,6,5,4,3,2,
{8}8/1-4[8:1]*-6[8:1],,1b,,
{8}3/8-4[8:1],,1,,
{8}6^1[4:1],,1^4[4:1],,4^7[4:1],,
{8}8-2[8:1],,8-3[8:1],,
{8}8-6[8:1],,8-5[8:1],,8s4[4:1],,,,,,
{16}6,5,6,,2,4,2,4,
{8}1-6[8:1],,8h[4:1],,5-1[8:1],,
{8}6^1[8:1],,2h[4:1],,3-7[8:1],,
{8}1-5[8:1],,8,,
{8}7^4[8:1],,7^2[8:1],,
{8}7-4[8:1],,7V13[8:1],,7,,
{8}7pp6[8:3],,4h[4:1],,,,
{8}3,24,,37,4^1[8:1]/8^5[8:1],,
{8}4-7[8:1]/8-3[8:1],,,,,,
{16}1,8,2,7,1,8,2,7,
{8}1^6[8:1],,,4^1[8:1],,,
{8}7^4[4:3],,,,,,7,,7,,
{8}8^3[8:1],,,5^8[8:1],,,
{8}2-5[4:2],,,,,,6,6,{16}4,5,4,5,
{8}3^6[8:1],,3,8^3[8:1],,8,
{8}5^8[4:3],,,,,,5,,5,,
{8}4^7[8:1],,4,1^4[8:1],,1,
{8}7^2[4:2],,,,,,7,,8,,1bp6[4:11],
E

Re:MASTER


名前:
コメント:

タグ:

+ タグ編集
  • タグ:
最終更新:2026年04月04日 13:11