| アーティスト |
曲:本多友紀(Arte Refact)/歌:日向 千夏(CV:岡咲 美保) |
BASIC
ADVANCED
EXPERT
(184)
{4}Ch[2:1],,,8bx/1bx,2,2/1,8,1/7,6,8/7,1,2/8,3,1/2,8,7/1,
{4}6,6/5,4,5/3,6,7/8,1,2/8,3,2/1,8,7/1,6,5/7,3,2/4,
{8}5,5,4,,3bx/7bx,,,,
{4}5/6h[1:2],5,4,4,5,5,4,5,5V71-3[4:3],,,,,,
{4}5/3,3/5,2h[2:1],4,4,3/5,6h[2:1],5,5,6/5,7V15-3[4:3],,,,,,1x/6x,,2/5,4/3,
{8}6,6,5,,{4}7/4,6/5,
{8}3,3,4,,{4}6/5V36-1[4:3],,,,,,
{4}8x/2x,7,6h[4:1],5,3h[4:1],4,7h[4:1],8x,2h[4:1],1,3/8<5-1>4[4:3],,,,,,
{4}5x/3x,,1/2,B6/B5f/B4,,8/7xqq8[2:1],,,,,8/7,B4f/B5/B3,,2xpp1[2:1],,,,,
{2}8h[4:1]/7h[4:1],8h[4:1]/1h[4:1],2h[4:1]/1h[4:1],8h[4:1]/3h[4:1],
{4}E3,E4,E7,E6,Ch[2:1],,,,8xh[4:1]/1xh[4:1],,7/2,,3/4,6/5,8/1,1/8,1b/2b,8/7,6/1,
{8}2,2h[4:1],,1,1,,
{4}8/2,1b/6b,7/5,3/4,1/2,7<4[4:1]/8>3[4:1],,,3x/4x,5b/2b,1/6,7/2,8/3,
{8}7,7h[4:1],,8,8,,
{4}1/7,8b/3b,2/4,4/5,5/7,8/1,1b/2b,1b/2b,7b/3b,,1/6,4/3,5/6,
{8}7,7h[4:1],,8,8,,
{4}1/6,8b/3b,5/6,5/6,3/4,1<6[4:1]/2>5[4:1],,,6x/5x,7b/4b,3/8,7/2,1/6,
{8}2,2h[4:1],,1,1,,
{4}8/7,6b/1b,2h[4:1],4h[4:1],5h[4:1],7,8b/1b,8b/1b,7b/2b,5b<8[8:3]b/4b>1[8:3]b,,,,,
{4}2h[1:1],,,4,4h[1:1],,,5,5h[1:1],,,6,6h[4:3],,,5,
{8}7,7-3V51[4:3],,{4},,,,,{8}8x/1x,,,2,2-6V48[4:3],,{4},,,,,{8}1x/7x,,,
{8}3,3-7V15[4:3],,{4},,,,,{8}6x/4x,,,
{8}7h[4:1],,,8h[4:1]/7h[4:1],,,1/6,,2h[4:1],,,1h[4:1]/2h[4:1],,,
{4}3/8v5[8:3]*v3[8:3],,,,2x/6x,3h[4:1],4,
{8}6,6,5,,{4}2h[4:1],4,
{8}7,7,8,,{2}1/6>3[4:1],2<7[4:1],6>3[4:1],
{8}1,1,1,,{4}2h[4:1],4,
{8}6,6,7/5,,{4}6h[4:1],5,
{8}3,3,4/2,,1,1,7,7,2,2,8,8,1/8,1/8,1/8,,7x/2x,,,,3/6h[1:1],,,,
{4}E6,E7,E8,E1,E2/B2,,4/3h[1:1],,E4,E3,E2,E1,E8/B7,,
{4}4/6h[2:1],,5,4,5/3h[2:1],,4,5,6h[4:1]/4h[4:1],,5h[4:1]/3h[4:1],,
{4}2,1,8,7,6>3[4:1],,,2,3<6[4:1],,,7,8/7<4[4:1],,,3,3/4-8[4:1],,,1,
{8}2,2,2h[4:1],,8,8,8h[4:1],,1,1,1h[4:1],,7,7,7h[4:1],,1,1,8,8,2,2,2/1,,
{4}Cf,,,,6h[4:1]/5h[4:1],,4x/3x,2/5,7b/8b,2/1,8/3,
{8}7,7h[4:1],,1,1,,
{4}8/2,1b/5b,2/4,5/4,5/7,7<4[4:1]/8p3[4:1],,,2x/1x,3b/8b,8/3,2/1,7/8,
{8}2,2h[4:1],,1,1,,
{4}8/3,1b/5b,6h[4:1],4h[4:1],2h[4:1],1,3b/8b,3b/8b,1b/6b,1b/6b,8/3,1/6,8/7,
{8}2,2h[4:1],,1,1,,
{4}8/2,1b/5b,2/4,3/4,7/5,6p1[4:1]/5>2[4:1],,,8/7,8b/7b,2/1,8/7,2/1,
{8}7,7h[4:1],,8,8,,
{4}1/5,8b/3b,
{8}1/7,1/7,1/7,,2/8,2/8,2/8,,
{4}1b/7b,2b/4b,6b/8b,3b/1bw5[2:1]b,,,,8x/2x,
{8}7,7,8,,{4}1/6,8/3,
{8}2,2,1,,{4}8/3,1/6,
{8}7,7,5,5,6,,{4}7/4,5x/3x,4/7,1/6,8b/4b,
{8}2,2,1,,{4}8/3,1/6,
{8}3,3,4,,{4}2/5,4/7,
{4}1h[4:1]/2-5[8:1],,8h[4:1]/7-4[8:1]b,,1/2,3/4,8/7,5b/6b-2-4[8:31]*-2-8[8:31],
E
MASTER
(184)
{4},,,,,,
{16}4,5,4,5,{4}3b/6b,
2h[8:1]/5h[8:1],4h[8:1]/7h[8:1],
{8}36,2,1,8,
{4}7h[8:1]/4h[8:1],5h[8:1]/2h[8:1],
{8}63,7,8,1,
2-4[8:1],2,6,6,7-5[8:1],7,4,3,
2,2h[8:1],4,4h[8:1],1,2,3b/5b,,
38,4,6,7,18,2,38,7,16,5,3,2,
17,6,4,4,3-5[8:1],3,8,8,
7-5[8:1],7,4,3,24,1,25,6,35,26,1b/7b,,
{8}2h[4:9],,4,4,4,,3,,
5,,4,4,4,,3,,
4h[4:1],,,24,,4q7[4:1]/3h[4:1],,,,,,,
8,,8,,
4/7h[4:9],,5,5,5,,6,,
4,,5,5,5,,6,,
5h[4:1],,,75,,4^7q1[8:3]/6h[4:1],,,,,,,
8x,,1x/7x,,
{8}2h[4:1]/5,,4,4,35,,
{4}7/1>5[4:1],5<1[4:1],1,5,17,{8}2h[4:1]/6h[4:1],,,
2-4[8:1]/6-4[8:1],,2-8[8:1]b/6-8[8:1]b,,,,,,,8x,,17,,
35,,4/6h[4:1],,5,6,4/7h[4:1],,
4,3,2h[4:1]/5,,8bx,8bx,,17,17,,
3h[4:1]/5h[4:1],,,4^2[8:1]*^7[8:1],,,,Cf/B6/E7/B7/B2/B3/E3,,,,,,
18,27,3x/6x,,
1b-6[8:1]/2b-5[8:1],,1b/2b,,,,5x/6x,,
7h[4:1],,8bx,8bx,,1bx/8bx,1bx/8bx,,
{4}8b-3[8:1]/7b-4[8:1],8b/7b,,2-6[4:1]b,6>2[2:1]b,7,8x,
8x^6[4:1],6^4[4:1],4^2[4:1],2^8[4:1],8^5[4:1],5^2[4:1],2^7[4:1],7,4,
{8}5,5,5,5,3,3,3,3,{16}4,5,4,5,4,5,4,5,3,6,3,6,2,7,2,7,
{4}1bh[4:1],,4h[4:1]/6h[4:1],,
35,1^4[8:1]/8^5[8:1],18,
3b/6b-1[8:1],
2-6[8:1]/6,5-1[8:1]/2,35,{8}2,2pp5[4:1],,5,6,7,8-4[8:1],,3b/8b,,
{4}1-5[8:1]/2-5[8:1],12,7-4[8:1]/8-4[8:1],{8}7>5[4:1]b/8,,,,,
1x-4[8:1],7x-4[8:1],1bx,7bx,,
{4}3x^8[8:1],7p3[8:1],1q5[8:1],{8}8,8,,E7/B6,B2/E3,E5/B4,B8/E1,,
{4}3b/7b,3-8[8:1]/7-4[8:1],37,
2-5[8:1]/6-1[8:1],26,
8b^3[8:1]*^5[8:1],8b,1b/7b,
3-8[8:1]/5,3b/7-3[8:1],4-8[8:1]/7,46,
{8}2,2pp5[4:1],,5,6,7,8-4[8:1],,3b/8b,,
{4}8-4[8:1]/7-4[8:1],87,2-5[8:1]/1-5[8:1],{8}2<4[4:1]b/1,,,,,
8x-5[8:1],2x-5[8:1],8bx,2bx,,
{4}7x-3[8:1],17,28,
{8}3xq5[4:1]b*>5[4:1]b,3x,,,,,
{4}1x-4[8:1]/7x-4[8:1],1bx/7bx,
{8}3-7[8:1],3,5-1[8:1],5,4-8[8:1],4,6,7,{4}1b^4[8:1]*^6[8:1],1b,1b/8b,2bq5[4:3]b/7bp4[4:3]b,,,,,
{8}3h[4:8]/5,,4,4,,,E5,,5,,4,4,,,E5,,
6h[8:13],,5,5,,,E5,,4,,5,5h[4:1],,,56,,
7,6,5,4^2[8:1],,4-8[8:1],,1x,,1,2,3h[4:1]/8-2[8:1],,8bx,,,
2,3,4,5^7[8:1],,5-1[8:1],,8x,,8,7,1h[4:1]/6-4[8:1],,6bx,,,
1,2,3,4p8[4:1],,8p4[4:1],,4,,
8,7,6-1[8:1],,4,,,
12,3,45,45,6,57,57,8h[4:1],,6,5,4,35,2,18,18,
{32}E7,B6,B5,,,,E3,B3,B4,,,,{8}Cf,,18,2b/7b,,
{16}46,,7,5,6,,2,4,3,,6,5,{8}7h[2:1],
4,3,2,1,1h[4:1],,{16}E7,B6,B5,,{8}3,34,2,1,8,27,3,45,45,6,7p4[4:1],8,1h[4:1],,,,{12}25,,3,3h[4:1],,,
A8,A7,A6,A4,A3,A2,D8,D7,D6,D4,D3,D2,{4}7h[4:1],8,{16}1,8,1,8,2,7,2,7,3,6,3,6,4,5,4,5,4,3,2,1,8,7,6,5,4,,,,
{4}3>6<3[4:7],6b,5,,5,,5,,
6<3>6[4:7],3,4,,4,,4,,
3>6<3[4:7],6,5,,5,,5,,
7<2>7[4:7],2,1,,1,1x,2x,3x,4hx[4:1],
8,{8}57,57,,4h[4:1]/6,,5,,34,3/4-2[8:1]*-6[8:1],,,,
1x,,1,,24,24,,3/5h[4:1],,4,,56,5-8[8:1]/6,,,,
1x,,18,1,2,2,35,3,4h[4:1]/5,,
7,7,6,6,35,3,2/4h[4:1],,
{16}3,4,3,4,2,5,2,5,1,6,1,6,8,7,8,7,
{1}8bhx[4:3],
{4}17,4-8[8:1]/5h[4:1],4x,2x/6x,
1b-3[8:1]/7b-3[8:1],1-5[8:1]/7-5[8:1],17,{8}7,7pp2[4:1],,2,3,4,5-1[8:1],,5b/8b,,
{4}7xV53[4:1],3V17[4:1],7V53[4:1],3>5[4:1],8b,
{8},4x-7[8:1],3x-8[8:1],4bx,3bx,,
{4}1/7^4[8:1],2q6[8:1]/7,2/8p4[8:1],{8}38,2h[4:1],,D5/E5/A5,E3/D3/A3,D7/E7/A7,1-4[8:1]*-6[8:1],,1b,,
{4}3-8[8:1]/7v4[8:1],37,6-1[8:1]/2v5[8:1],26,
8b-4[8:1],2b-6[8:1]/8b,2b/5b,17,
8b-6[8:1]/2b-6[8:1],8-4[8:1]/2-4[8:1],82,
{8}2,2qq7[4:1],,7,6,5,4-8[8:1],,4b/1b,,
{4}2xV46[4:1],6V82[4:1],2V46[4:1],6<4[4:1],1b,
{8},5x-2[8:1],6x-1[8:1],5bx,6bx,,
{4}8/2^5[8:1],7p3[8:1]/2,7/1q5[8:1],
{8}6xp4[4:1]b*<4[4:1]b,6x,,,,,
3-8[8:1]/4-8[8:1],,3b/4b,,
7-3[8:1],7,1-5[8:1],1,8-4[8:1],8,1,1,
{32}1bx,2,3,4,5,6,7,8,1bx,2,3,4,5,6,7,8,{4}1bx,2bqq5[2:1]b/7bpp4[2:1]b,,,,
1b/8b,
{8}7-4[8:1],7,1,2,35,6,45,3,2-5[8:1],2,8,7,64,3,54,6,
7-5[8:1],7,1,2,3-1[8:1],3,7-3[8:1],7,8-4[8:1],8,1-5[8:1],1,3,3,2b/8b,,
7-4[8:1],7,1,2,35,6,45,3,2-5[8:1],2,8,7,64,3,54,6,
7^4[8:1],7,2-6[8:1],2,8-4[8:1],8,1,1,1x/5,2,34,34,
{16}5,4,6,5,7,4,8,3,
{4}7-1[2:1],,,,5-3[2:1]b,,,,
6v4-2[2:3]*v8-2[2:3],,,,,,,,
{1},,,,E
Re:MASTER
最終更新:2026年08月31日 09:59