アットウィキロゴ

Help me, ERINNNNNN!!

アーティスト ビートまりお

BPM BASIC ADVANCED EXPERT MASTER Re:MASTER
185 4 7+ 10+ 13 -

EXPERT MASTER Re:MASTER
譜面制作者 Luxizhel 鳩ホルダー -

BASIC


ADVANCED


EXPERT


MASTER

(185){2}4/5,4/5,{4}4/5,4-1[8:1]/5-8[8:1],,,{2}2-4[8:1]/6h[4:3],2-4[8:1],1-5[8:1]b/7h[4:3],1-5[8:1]b,2>4[8:1]/6h[4:3],2>4[8:1],1q5[8:1]b/7h[4:3],1q5[8:1]b,1-5[8:1]/2-4[8:1],1-5[8:1]/2-4[8:1],1q5[8:1]/2>4[8:1],1q5[8:1]/2>4[8:1],1-6[8:1]/2-5[8:1],1-5[8:1]/2-6[8:1],{4}1x/2x,1xs5[4:1]b/2xz6[4:1]b,,,4h[4:1]/7h[4:1],,1h[4:1]/8h[4:1],,{8}2,2,5,,3/6,,{16}4,5,4,5,{8}4-8[8:1],,4b,5,6,7,8,,1h[4:1]/2>5[8:1]b,,,,1h[4:1]/2>5[8:1]b,,,,{16}3/8,,2,1,2,,7,,6/1,,7,8,7,,2,,3/8,,2,1,3,,5,,4/6,,,,3,,2,,1/6,,7,8,7,,4,,5,,2,1,2,,,,{4}3/4q8[8:1]*<8[8:1],,1h[4:1]/2>5[8:1]b,,{16}4b/7b,,6,5,6,,3,,2/5,,3,4,3,,6,,4/7,,6,5,7,,1,,2/8,,,,7,,6,,2/5,,3,4,3,,8,,1,,6,5,6,,,,{2}8h[4:1]/2q6[8:1]b,8h[4:1]/2q6[8:1]b,{16}3/8,,2,1,2,,5,,4,,7,8,7,,4,,5,,2,1,3,,5,,4/6,,,,3/5,,,,6,5,6,5,7b,,,,3,4,3,4,2b,,,,2,8,2,8,2,8,2,,{8}4b/6b,2b/8b,3b/7b,,

{2}2-5[8:1]/8h[4:3],2-5[8:1],1-6[8:1]b/7h[4:3],1-6[8:1]b,2>5[8:1]/8h[4:3],2>5[8:1],1v6[8:1]b/7h[4:3],1v6[8:1]b,{4}2-4<5[8:1]/8,8,2-4<5[8:1]/8,8,1q6[8:1]b/7,7,1q6[8:1]b/7,7,2x-6[8:1]/8,2x>4-8[4:1]/8,2x/7,,1x-5[8:1]b/6,1x>4-8[4:1]b/6,1bx/6,,{2}2>6[8:1]/8h[4:3],2>6[8:1],1>5[8:1]b/7h[4:3],1>5[8:1]b,2V46[8:1]/8h[4:3],2V46[8:1],1V35[8:1]b/7h[4:3],1V35[8:1]b,{4}2>4-6[8:1]/8,8,2>4-6[8:1]/8,8,1-3<5[8:1]b/7,7,1-3<5[8:1]b/7,7,{1}2<3[2:1]*-6[4:1],{4}Cf/A6/B6/A3/B3/A2/B2/A7/B7,,{8}1/8,1/8,1/8,,

{8}2,,3/4,,2,,3q5[8:5]/4,,5,,6,6,,8,,7,7h[4:1],,6h[4:1],,5,5,4,4,,5/6,,3/4,3<6[4:1]/4,,,,7h[4:1],,5,,3h[4:1],,5,5pp4[8:5],,4,4,3,,2,2,,2h[4:1],,
3h[4:1],,4,4,5,5,,3/6,,4/5,3/6,2/7,2b/7b,,1/2,,7/8,,1/2-7[8:1],,6,6-3[8:1],,1,,2x/8x,,7h[4:1],,8,8h[4:1],,1h[4:1],,2,2qq5[8:5],5,5,,,6,,7,,5/7,,3h[4:1],,1,,6h[4:1],,8,,1h[4:1]/7h[4:1],,,2/6,2/6,,3,3,3/4,,1/2,,7/8,,
5q2[4:1]/6<1[4:1],,,,,,3b/8b,,,,{4}2/8h[4:3],{32}2x,E3,B3,B4,E5,,,,{4}2,{32}2x,E3,B3,B4,E5,,,,{4}1/7h[4:3],{32}1x,E1,B8,B7,E7,,,,{4}1,{32}1x,E1,B8,B7,E7,,,,{4}2>4[8:1],5,2>4[8:1],5,{8}6,5,4,3,2>4[8:1],,,,{4}2/8h[4:3],{32}2x,E3,B3,B4,E5,,,,{4}2,{32}2x,E3,B3,B4,E5,,,,{4}1x-3[8:1]b*-7[8:1]b,1xw5[8:1]b,1bx,,{8}3/7,2,1/6,7,4/8,2,1/5,7,{16}2/8,,,4/5,,,2/6,,2-5[8:1]/6v1[8:1],,,,{4}2b/6b,

{16}4/8,,3,1,3,,7,8,7,,2,1,2,,6,8,6,,3,4,2,,8,,1/7,,,,5/6,,4/5,,3/4,,2,4,3,,6,5,7,,1,8,2,,,,{4}1h[4:1]/2V46[8:1]b,2b,1h[4:1]/2V46[8:1]b,2b,{16}4/7,,6,5,6,,2,4,2,,7,5,7,,3,4,3,,6,5,7,,1,,2/8,,,,3/4,,4/5,,5/6,,7,5,6,,2,4,3,,8,5,6,,,,{4}3-7[8:1]b/4-8[8:1]b,3/4,1h[4:1]/2V46[8:1]b,2b,{16}4/8,,7,5,7,5,6,,3,4,3,4,2,,7,8,5,,2,1,4,,3/7,,3/7,,,,1/2,,1/8,,7/8,,6,8,6,8,6,,3,1,3,1,3,,,,{4}8h[4:1]/2>4-6[8:1]b,2b,8h[4:1]/2>4-6[8:1]b,2b,{16}4/7,,3,1,3,1,3,,6,8,6,8,6,,3,4,2,,6,5,8,,3/7,,3/7,,,,4/6,,,,{8}5/6,8bx,5/6,1bx,4/3,8bx,4/3,1bx,{16}2,8,2,8,3,7,3,7,2,6,2,6,1b/5bx,,,,

{4}3q5<4[4:7]b/7,Cf,,,,,,,6,6,4>2[8:1]/5<7[8:1],,4z8[8:3]/5s1[8:3],,,,2/8h[4:3],{48}2,D3,A3,D4,A4,D5,{8}A5,{4}2,{48}2,D3,A3,D4,A4,D5,{8}A5,{4}1/7h[4:3],{48}1,D2,A2,D3,A3,D4,{8}A4,{4}1,{48}1,D2,A2,D3,A3,D4,{8}A4,{4}2/8h[4:3],{48}2,D3,A3,D4,A4,D5,{8}A5,{4}2,{48}2,D3,A3,D4,A4,D5,{8}A5,{4}1/7h[4:3],{48}1,D2,A2,D3,A3,D4,{8}A4,{4}1,{48}1,D2,A2,D3,A3,D4,{8}A4,{4}2V48[4:1]/6,5-7[16:1],D8f,,1-5-7[4:1]b/2V48[4:1]b,,D8f/A7/A8,,{4}2>4q8[4:1]/6,5<7[16:1],D8f,,1q5<7[4:1]b/2>4q8[4:1]b,,D8f/A7/A8,,2-6[8:1]/6,4w8[8:1],A4f,,1-5[8:1]b/6,4-8[8:1]b*-7[8:1]b,A4f/E4/E5,,2-5>3-1[2:1]/Chf[1:1],,,,B8/B1/E1/A1/A8/D1,,,,{16}1b,8,1,8,2,7,2,7,3,6,3,6,4,5,4,5,3b,4,3,4,2,5,2,5,1,6,1,6,8,7,8,7,2b,1,2,1,3,8,3,8,4,7,4,7,5,6,5,6,
4b,5,4,5,3,6,3,6,2,7,2,7,1,8,1,8,2b,1,3,8,4,7,5,6,3b,4,2,5,1,6,8,7,{32}1b,2,3,4,5,6,7,8,1b,2,3,4,5,6,7,8,{4}1b-5[8:1],,3b/7b,,2hx[1:2]/6x-2<3[4:7]b,E

Re:MASTER


  • PRiSM PLUS ver.より、旧ver.の「Help me, ERINNNNNN!!」の楽曲名が変更されたので、「Help me, ERINNNNNN!!(Band ver.)」ページに移動させました。 -- けもがみ (2025-08-23 14:56:10)
  • MASTER譜面を追加しました。修正等ありましたらよろしくお願いします。 -- Sugar (2026-05-07 09:57:21)
名前:
コメント:

タグ:

+ タグ編集
  • タグ:
最終更新:2026年05月07日 09:57