アットウィキロゴ

ヨミビトシラズ

アーティスト Limonène (サノカモメ+月島春果)

BPM BASIC ADVANCED EXPERT MASTER Re:MASTER
188 4 7+ 12 13+ -

EXPERT MASTER Re:MASTER
譜面制作者 はっぴー Jack -

BASIC


ADVANCED


EXPERT

(188){8}3-5[8:1],,5,6h[8:9],,,,,,,,,E5,,,,6-4[8:1],,4,3h[8:9],,,,,,,,,E5,,,,3-5[8:1],,5,6h[8:9],,,,,,,,,4<3[4:5],,,,{1},{8},,,,,4x/5x,4x/5x,,6-4[8:1],,3,3h[4:1],,,3,,3,,3,,3/5,,3/6,,7/3-1[8:1],,8,8h[4:1],,,8,,8/4,,8<5[4:1]/4,,3,,3,,3-5[8:1],,6,6h[4:1],,,6,,6,,6,,5,,4/5,4/5>2[4:1]*<8[4:1],,,,,,2x/8x,2x/8x,,{4}3h[1:1],,4,5,6h[2:3],,5,,5,4,3h[1:1],,8,7,6h[2:1],,4,4/5,,,

{2},6>3[1:1],,,,3<6[1:1],,,,6>3[1:1],,,,3>6[1:1],,,{4},4/6<1[4:3],E4,E3,E2,E1,E8,E7,4,5/3>8[4:3],E6,E7,E8,E1,E2,E3,{8}5,,4/6,,7,,8,8h[4:1],,1,,2/7,,3/6,,4/5,,4/5,,1-4[8:1]/8-5[8:1],,,,,,,,,4/5,,4,5,6-2[8:1],,3,3-7[8:1],,4>5[8:7],,,,,,,,,,,

{8},,1b,,8x,7,4/6,,3,4,5,6,3/7,,8<3[4:1],,2,,1,,1x,8,2/7,,3,4,5,6,3/7,,4/6,,1/8,,3/5,,6,6,5,7,1,1,8,8h[4:1],,2,2,,3/7,4/6,4/6,,3,3,4,2h[4:1],,8,8h[4:1],,1,1,,2/7,,
3/6,,1x,1x,2,3/5,,6,5,4,3,2/6,,1>6[4:1],,7,,8,,8x,1,7/2,,6,5,4,3,6/2,,3/5,,1/8,,4/6,,3,3,4,2,8,8,1,1h[4:1],,7,7,,2/6,3/5,3/5,,6,6,5,7h[4:1],,1,1h[4:1],,8,8,,2/7,,
3/6,,8x,8x,7,4/6,,3,4,5,6,3/7,,2/6,,1-4[8:1],,5<8[2:1],,4hx[4:3],,,,,,8,,8/4,,3/7,,2/6,,1/5,,3,3,4,2,8,8,1,1h[4:1],,7,7,,2/6,,3/5,,6,6,5,7h[4:1],,1,,2/8,,3/7,,4/6,,3/5,,1x,1x,2,5/3,,6,5,4,3,6/2,,7/3,,8-5[8:1],,4>1[2:1],,5hx[4:3],,,,,,1,,1/5,,6/2,,7/3,,7/3,,6,6,5,7,1,1,8,8h[4:1],,2,2,,3/7,,4>5[1:1]/5<4[1:1],,,,,,,,,,,,3x/6x,3x/6x,{16},,1,8,1,8,1,,

{4}2h[2:7]/7h[2:7],,,,,,,,,,,,,,,,6,5,4,6,5,,3,4,5,3,4,,6,6,4/5,,{8}E4/B3/E3,,,E6/B6/E7,,,E2/B2/E3,,,E8/B7/E7,,,E4/B3/E3,,,E6/B6/E7,,,E5/B5/B4,,,Chf[8:7],,,,,,,,,,,

{8}1x-3[8:1]/8x-4[8:1],,,,8x-6[8:1]/1x-5[8:1],,,,1/8,,2/7,,4/5,,3/6,,5x,6,1/7,,2,1,8,7,2/6,,3/5,,4/7,,3/8,,2,2,1,3,5,5,4,4h[4:1],,6,6,,3/7,2/8,2/8,,7,7,8,6h[4:1],,4,4h[4:1],,5,5,,3/6,,2/7,,
4x,4x,3,2/8,,7,8,1,2,3/7,,4>8[4:1],,6,,6,,5x,6,7/1,,2,1,8,7,6/2,,3/5,,4/7,,1b/6b,,7,7,8,6,4,4,5,5h[4:1],,3,3,,2/6,1/7,1/7,,2,2,1,3h[4:1],,5,5h[4:1],,4,4,,1/8,,5/7,,4x/6x,4x/6x,

{16}3,4,2,,6,5,7,,3,4,2,,6,5,7-3[8:1],,2,,2h[4:1],,,,4,,,,3x/5x,,6,5,7,,3,4,2,,6,5,7,,3,4,2-6[8:1],,7,,7h[4:1],,,,5,,,,4x/6x,,3,4,2,,6,5,7,,3,4,2,,6,5,7-3[8:1],,2,,2h[4:1],,,,4,,,,5,,6,,4,,3,,8,,7,,1,,2,,5,,6,,4,,3,,3,,5,,4x/6x,,4x/6x,,7,5,8,,2,4,1,,7,5,8,,2,4,1-6[8:1],,7,,7h[4:1],,,,5,,,,5x/3x,,2,4,1,,7,5,8,,2,4,1,,7,5,8-3[8:1],,2,,2h[4:1],,,,4,,,,4x/6x,,7,5,8,,2,4,1,,7,5,8,,2,4,1-6[8:1],,7,,7h[4:1],,,,5,,,,4,,4,,5,,5,,2,,2,,6,,6,,3b-6[8:1],,7b-2[8:1],,E

MASTER

(188){8}5,,,5h[8:13],{2},,,{8}4,,,3h[8:13]/5,{2},,,{8}5,,,5/7h[8:11],{2},,{4},{32}5-8[4:6],4,3,2,1h[4:7],,,,{2},,,{8},8,1,2/7,,6,6,5h[1:1]/7,,4,4,,,,,6,6,5,5,6,5/7,4,3,4h[2:1]/2,,,,3,4,5,6,6-4[8:1],,4,,3,2/4,5,6,5/7,8,8<5[8:1],,3,2,1>4[8:1],,5,6,7,8/1,2q3[4:1]/7p6[4:1],,,,,,4/5,,3,2/4h[4:1],,5,4,3>5[2:1]/5,,{2}8h[2:1],{8},,7/5h[4:1],,4,5,6<4[2:1]/4,,{2}1h[2:1],{8},,2V46[8:3]/4,,8h[8:5],,,,,6,5pp1[1:1],4,

{4}3h[8:69],{1},7h[8:59],,,,,,,,{8}5,,5,4,5,3,5,2-8[8:1],5,,5,,5/7,6,5,4,3/5,,3,4,3,5,3,6-4[8:1],3,,3,,3/5,6,4/7,3,2/6,,4,3h[4:1]/5,,5,6,5h[4:1]/7-1[8:1],,7,,6h[4:1]/2-5[8:1],,2,,5hx[8:11]/8-4[8:1],,8x,,,{4}4,4,4,{8}4,5,4,3/6,2/7,1x>4[8:1]/8x<5[8:1],,1b/8b,,,{2}Chf[4:5],,,

{16}1/8,,2,,1/8,,7,,8h[8:1]/1,2,3,,5/6,,4,,3h[8:1]/7,6,5,,2h[8:1]/8,7,6,,1-5[8:1]/8,,,,8,,,,3/7,,4,,5/6,,7,,8h[8:1]/1,2,3,,5/6,,4,,3/7,6,5,4,3,2,1,8,7-3[8:1]/3,,,,1,,,,2/8,,3,,4/7,,6,,5/2-6[8:1],,,,8,,8<2[4:1],,,,1,,1h[8:3],,,,,,8,,2/7,,3/6,,5-1[8:1]/4,,,,3,,3>6[4:1],,,,5,,5h[8:3],,,,,,4,,3/6,,2-5[8:1]/7-4[8:1],,,,2/7,,,,1/8,,1/8,,7,,1/8,,2,,1h[8:1]/8,7,6,,3/4,,5,,2/6h[8:1],3,4,,1/7h[8:1],2,3,,1/8-4[8:1],,,,1,,,,2/6,,5,,3/4,,2,,1h[8:1]/8,7,6,,3/4,,5,,2/6,3,4,5,6,7,8,1,2-6[8:1]/6,,,,8,,,,1/7,,6,,2/5,,3,,4-8[8:1]/7,,,,6,,6<3[4:1],,,,4,,4h[8:3],,,,,,5,,4,,3/6,,2/7-3[8:1],,,,1,,1>7[4:1],,,,8,,8h[8:3],,,,,,1,,2/7,,3-7[8:1]/6,,,,

{8}6<4[8:13],,5,5x,,5,,5,,5,,5,,5,,5-1[8:1],,5<3[4:6],,4,,4,,4,,4,,4,,4,,4w8[8:1],,,,2/6,5,3/4,2,{16}1h[8:1]/8,7,6,,3/4,,5,,2/6h[8:1],3,4,,1/7h[8:1],2,3,,1/8,,7,,1/8-4[8:1],,2,,1/8,,,,3/5,,6,,4/7,,3,,2,,1/8-5[8:1],,,,3<6[8:1],,3,,7>2[8:1],,7,,4-1[8:1],,4,,8,,8x,,,,5/6,,7,,1/8h[8:1],2,3,,5/6,,4,,3h[8:1]/7,6,5,,2h[8:1]/8,7,6,,1>4[8:1]/8,,,,8<5[8:1],,,,
1,,2,,3/4,,2,,1h[8:1]/8,7,6,,3/4,,2,,1/8,,7,,2/6h[8:1],3,4,,1/8,,2,,7/3h[8:1],6,5,,
1/8,,2,,8/1,,7,,1/8h[8:1],2,3,,5/6,,4,,3h[8:1]/7,6,5,,2h[8:1]/8,7,6,,1-5[8:1]/8-4[8:1],,,,1>4[8:1]/8<5[8:1],,,,1/8,,,,2/7,,3,,4/5,,6,,2/7,,1/8,,2,3,4,5,7,6,5,4,1,8,1,8,1,8,1,8,

{2}2hx[1:2]/7x,,{4},E4,C,E8,{2}6h[1:2],,{4},E2,C,E6,{1}4-1[4:7],,8-5[4:7],,{8}E2,,,E3,,,E4,,,E8,,,E7,,,E6,{16}E3,B3,B4,E5,E8,B7,B6,E6,E2,B2,B3,E4,E7,B6,B5,E5,E2,E3,E4,E5,E8,E7,E6,E5,1x,8x,1x,8x,1x,8x,1x,8x,2b/7b,,
3,,4/7,,6,,5h[8:1]/4,3,2,,7/8,,6,,5<8[8:1]/2,3,4,,1-5[8:1]/5,,,,1/7-3[8:1],,,,7/8,,,,1/2,,3,,4/5,,6,,7/8,1,2,3,4,5,6,7,8-4[8:1],,,,1/8,,,,2-5[8:1]/6-1[8:1],,,,2/6,,,,3/7,,6,,4/5,,3,,2-4[8:1]/5,,,,2/5,,7V51[8:3],,,,4/7,,2h[8:3],,,,,,1,,3/8,,4/7,,5/6,,,,8-4[8:1],,2-6[8:1],,8,,2,,5h[8:3],,,,,,1,,2/6,,3-6[8:1]/7-2[8:1],,,,3/7,,,,1/8,,2x/7x,,6,,2/5,,3,,4h[8:1]/5,6,7,,1/2,,3,,7/4>1[8:1],6,5,,4/8-4[8:1],,,,8/2-6[8:1],,,,1/2,,,,7/8,,6,,4/5,,3,,1/2,8,7,6,5,4,3,2,1-5[8:1],,,,1/8,,,,3-8[8:1]/7-4[8:1],,,,3/7,,,,2/6,,3,,4/5,,6,,4/7-5[8:1],,,,5/7,,2V48[8:3],,,,2/5,,7h[8:3],,,,,,8,,1/6,,2,,3/8,,7,,1/6,,2-6[8:1]/5,,,,8,,8h[8:3],,,,,,1,,1/8,,2-5[8:1]/7-4[8:1],,,,2/7,,,,1/8,,

{16}2/7,,3,4,3,,2/5,,6,5,6,,4/7,,3,4,2,,1/8,,6,5,7,,4x/5x,,,,2/7,,6,5,6,,4/7,,3,4,3,,5/2,,6,5,7,,8/1,,3,4,2,,5x/4x,,,,1/8,,2,4,3,,2/5,,7,5,6,,4/7,,
2,1,2,,3/8,,7,8,7,,1x/6x,,5,,4,,3,,2-5[8:1],,1,,2,,7-3[8:1],,8,,7,,1-5[8:1],,8,,1,,6,,7,,1x/8x,,2/7,,3/6,,4,5,3,,2/6,,5,4,6,,3/7,,2,1,3,,4/8,,7,8,6,,1x>4[8:1]/5,,,,8,,6,6,5,,4/7,,3,3,4,,2/5,,7,7,8,,1/6,,2,2,1,,
8x<5[8:1]/3,,,,1,,3,3,4,,2/5,,6,6,5,,4/7,,2,2,1,,3/8,,7,7,8,,1x-5[8:1]/6,,,,1/8,,7,,6,,5/7,,4,,3,,2/4,,1,,8,,3<6[8:1]/7,,2/6>8[4:5],,3/7,,E

Re:MASTER


  • MASTER譜面を追加しました。修正等ありましたらよろしくお願いします。 -- Sugar (2026-02-10 10:41:34)
  • EXPERT譜面を追加しました。修正等ありましたらよろしくお願いします。 -- Sugar (2026-03-08 14:56:17)
  • MASTER譜面の一部配置ミス、スライドの長さを修正しました。追加修正等ありましたらよろしくお願いします。 -- Sugar (2026-04-22 23:18:48)
名前:
コメント:

タグ:

+ タグ編集
  • タグ:
最終更新:2026年04月22日 23:18