アットウィキロゴ

前衛的Landscape

アーティスト HiTECH NINJA feat. RANASOL

BPM BASIC ADVANCED EXPERT MASTER Re:MASTER
153 4 8 11 13+ -

EXPERT MASTER Re:MASTER
譜面制作者 翠楼屋 シチミヘルツ -

BASIC


ADVANCED


EXPERT

(153){4}5<8[4:3],,,,1>4[4:3],,,,5<1[4:3],,,,2,2,3,3/5,4/6h[2:1],,C,,5pp5[2:1]*qq5[2:1],,,,4hx[2:1]/6hx[2:1],,,{8}2x/5x,2x/5x,,3x/4x,,5x/6hx[4:1],,5x,{16},5x/6x,,,{4}4/7,6,3,2/4,3/5,4,6,5/7,4/6,5,3,2h[4:1]/4,4h[4:1],5,{8}5/6,5/6,5/6,,{4}4/7,6,3,2/5,3/4,4/5,5/6,4/7,6,4/5,3,2/4q5[2:1],,,,3x/6x,

{4}2/7V15[4:5],,,,,,,4/6,5/3V15[4:5],,,,,,6,7,{8}8hx[1:2]/4h[4:1],,,4,,4,,5,,5,,4,,5,5s1[2:1],,,,,,,,1/8,1/8,,2,,3/5,3/5,,4x/6x,,{16}7h[16:3],,,6h[16:3],,,5,,2h[16:3],,,3h[16:3],,,4,,5h[16:3],,,6h[16:3],,,7,,7,,,,1/6,,,,2h[16:3],,,3h[16:3],,,4,,7h[16:3],,,6h[16:3],,,5,,2h[16:3],,,3h[16:3],,,
4,,4,,,,3/8,,,,7h[16:3],,,6h[16:3],,,5,,4h[16:3],,,3h[16:3],,,2,,,,1/8,,,,5/7,,5-2[8:1]/7-4[8:1],,,,,,,,{8}1x,,2,2,3/7,,4,4h[4:1]/6,,3,,1/2,1/2-6[8:1],,8b,,

{8}7,7,5,5,6,4,3/5,,2,2,4,4,3,5,4/6,,7,7,5,5,6,6,4-2[8:1],,7-5[8:1],,1s5[8:3],,,,,,4x/6x,4x/6x,3,3,4,3,2/5,2/5,1,1,8,8,1b/7b,2b/6b,3b/5b,,Cf/B2/B6,,8p4[4:1],,1h[2:1],,,,4,4,2,2,{16}3x/4x,,,5x/6x,,,4x/7x,,{1}4x>5[4:11]/7x,,,{4},,,E4/B4/B5/E6,2h[4:3],E2,E3,E4,6h[4:3],E7,E6,E5,E4,E3/E7,E8/E2,Chf[4:5],,,,,B2/B7,,{8}1x/8x,1x/8x,

{4}2b<7[8:1]/7b<4[8:1],,7x>2[8:1]/2x>5[8:1],,2x<7[8:1]/7x<4[8:1],,2x/7x,3/4,2-5[8:1]/5-1[8:1],,7-4[8:1]/4-8[8:1],,1x/5x,2/4,7/5,1/8,2q6[8:1]/7>2[8:1],,7xp3[8:1]/2x<7[8:1],,2xq6[8:1]/7x>2[8:1],,{8}1x,1x,,2/8,3/7,4/6,,3/5,,2/6,2/6-1[8:1],,3,3,,8h[8:1]/4h[8:1],,5h[8:1]/6h[8:1],,2/4,1b/5b,,
{8}2>5[8:1],,6,7,8/2>5[8:1],,6,7,8/2-6[8:1],,5-1[8:1],,4,4,8,8,1/7,,2-5[8:1],2,1-6[8:1],1,4,4,,7/8,7/8,1/6-2[8:1],,4-1[8:1],,8,8b,,1/2,3/8,4/7h[4:1],,8-3[8:1],8,7-4[8:1],7,1,1,,2/8,3/7,4-8[8:1]/6>3[8:1],,,,1x,2x,3>5[8:5],4,5b,{4},,8-4[8:1],3b,

{8}2/5,,3/4,,6,6,5/7h[4:3],,8,,6,,8,,1/6,,7/4,,6/5,,3,3,4/2h[4:3],,1,,3,,1,,8/3,,5/6,,3/4,,{16}2h[8:1]/4h[8:1],,,3h[8:1]/5h[8:1],,,4h[8:1]/6h[8:1],,,5h[8:1]/7h[8:1],,,5/7,,5/7,,{4}4-1[8:1]/8-5[8:1],,2b/6b,3/4,{16}6h[16:3],,,7h[16:3],,,8,,{4}8<3[4:1],,2-6[8:1],7-3[8:1],4b,E

MASTER

(153){4}4<6[4:1],6<8[4:1],8>2[4:1],2>4[4:1],4q5[2:1],6h[4:3],,,5>3[4:1],3>1[4:1],1<7[4:1],7<5[4:1],5p4[2:1],8,8,8x,8p4[8:1]/4p8[8:1],,E2/B2/E7/B6,,4qq4[4:1]*pp4[4:1],,{8},3/5>7[8:3],3/5,,,,,3-6[8:1],7-2[8:1],3,7,4-1[8:1]*-7[8:1],,4,,{8}2/6,,{16}3/5,,4,5,,,{16}1-5[8:1]/2v5[8:1],,,,1/2,,,6,5,6,,4/7,,6,5,,7-5[8:1]/4,,4,,3,,3,,2-4[8:1]/4,,4,,5,,5,,8-4[8:1]/7v4[8:1],,,,8/7,,,3,4,3,,5/2,,3,4,,2-4[8:1]/5,,5,,6,,6,,7-5[8:1]/5,,5,,4,,4,,1-5[8:1]/2v5[8:1],,,,1/2,,,6,5,6,,4/7,,6,5,,7-5[8:1]/4,,4,,3,,3,,2-4[8:1]/4,,4,,5,,5,,8-4[8:1]/7v4[8:1],,,,8/7,,,3,4,3,,5/2,,3,4,,4/5,,3,,4/5,,6,,4-8[8:1]/5-1[8:1],,,,4b/5b,,,,

{2}2<7[4:5]/7,,,{4},5,6>3[4:5],{2},,,{8}1,,4/5,4/5h[4:5],,6x,,6x,,6x,,6x,,6x>3[8:1],,8,8,,1>5[4:1],,5<1[4:1],,1,,5,,3/5,,4/6,,{16}5/7h[16:3],,,5,6,,4/5,,3-1[8:1]/4,,,4,3,,5,,3-8[8:1]/4,,,4,3,,5,,3-1[8:1]/4,,,4,3,,5,,2/4,,3,,4/5,,6,,6-8[8:1]/5,,,5,6,,4,,6-1[8:1]/5,,,5,6,,4,,6-8[8:1]/5,,,5,6,,4,,7/5,,6,,5/4,,3,,3-1[8:1]/4,,,4,3,,5,,3-8[8:1]/4,,,4,3,,5,,3-1[8:1]/4,,,4,3,,5,,2/4,,3,,4/5,,6,,{8}5h[4:1]/7h[4:1],,,4/2,4h[4:1]/2h[4:1],,,5/7,,3/4,,1/6,1-6[8:1]/6,,1b/5,,

{16}2/4,,3/5,,4/6,,7,5,7,5,7,5,7h[4:1],,8,,5,,4,,3h[4:1]/5,,E2/B2,,4h[4:1],,E1/B1,,5h[4:1],,E8/B8,,6,,4/6,,B2,B8,B4,B6,B1,B7,B3,B5,E2,E8,E3,E7,E4,E6,C,,8,,1/8,,1/8h[8:3],,,E5/B4,,,B7/B6,,1,,1h[8:1],,4,2,5,3,6,4,7,5,8h[4:1],,B7/B6,,1,,2/8,,3/7,,4/6,,5x/B3,,4x/B6,,1b/Cf,,,,2/8,,7,8,6,1,5,2,4,3h[8:1],,6,4,,3/7,,3/7,,2,,1/5,,8,,5/7,,3,4,,6,5,,{4}8b<1[2:7]/4,,,{1}C,C,C,{4}C,8h[4:1],7h[4:1],6h[4:1],5h[4:1],4h[4:1],3h[4:1],2h[4:1],1h[4:1],{8}7,7/8,6,5/6,3,3/4,2,1/2,{16}8,1,8,1,8,1,8,1,8-4[8:1],1,8,1,8,,,,2,,3/5,3/5,,4/6,4/6,,3,7,4,5,1b,,,,

{16}1-5[8:1]/6,2/7,3/8,,2x,,2x,,1-6[8:1]/6,2/7,3/8,,2xV41[4:1],,2x,,1-5[8:1],,5<8[8:1],,8>3[8:1],,4,,,,5,,4x/6x,,7,,8-4[8:1]/3,7/2,6/1,,7x,,7x,,8-4[8:1]/3,7/2,6/1,,7x<4[8:1],,7x,,{4}7/1-5[8:1],1/3-7[8:1],2h[4:1]/3,{8}8-4[8:1],4-8[8:1],8,2,3-6[8:1],6-3[8:1],3,8-4[8:1],7-5[8:1],8-2[8:1],7-3[8:1],8<2[4:1],7,8,,8pp7[4:1],7,6h[2:1],,,,7,5/8,1<3[8:3]/4<2[8:3],2/3,1/4,,,,,1-3[8:1]/7-3[8:1],,1b-6[8:1]/7b,,1/5-8[8:1],4,3-5[8:1]/5,2,3/7-3[8:1],6,4-1[8:1]/7,5,4/8>3[8:1],,7/8<5[8:1],,4/8,3,2,1/5,{16}2,,2,1,,1,8,,4/6,,3<6[8:1]/7>2[8:1],,2/6,,3/7,,,,{24}1/5,4/8,3/7,{16}2/6,,2/6,,7,8,7,8,6-1[8:1],1,6,1,6,,,,1/3,,4/8,,5/7h[4:1],,{24}8,1,2,3,,,{8}5/7,4/2h[4:1],{24}1,8,7,6,,,{8}4/2,,1>4[8:1]/5,4<7[8:1]/8,,,,8,1/7,2/6,3>5[4:1]/5-8[8:1],4,5p1[8:1],,,,,1-4[8:1]/8-5[8:1],,1b/8b,,

{16}2v5[8:1]/6-1[8:1],,,,2/6,,,3,4,3,,2/5,,3,4,,2-4[8:1]/5,,5,,6,,6,,7-5[8:1]/5,,5,,4,,4,,7-4[8:1]/3v8[8:1],,,,7/3,,,2,1,2,,8/3,,2,1,,3-1[8:1]/8,,8,,7,,7,,6-8[8:1]/8,,8,,1,,1,,2v5[8:1]/6-1[8:1],,,,2/6,,,3,4,3,,2h[8:1]/5h[8:1],,,3h[8:1]/6h[8:1],,,4h[8:1]/7h[8:1],,,6/7,,1/8,,2/5,,{24}3,4,3,4,,2/5,{16},,7-4[8:1]/3v8[8:1],,,,7/3,,,2,1,2,,8/3,,2,1,,7,5,6,2,4,3,8,4,6,1,5,3,8b-4[8:1],,,,8/5,E

Re:MASTER


  • MASTER譜面を追加しました。修正等ありましたらよろしくお願いします。 -- Sugar (2026-02-10 20:41:28)
  • EXPERT譜面を追加しました。修正等ありましたらよろしくお願いします。 -- Sugar (2026-03-13 19:42:21)
名前:
コメント:

タグ:

+ タグ編集
  • タグ:
最終更新:2026年04月12日 13:51