BASIC
ADVANCED
EXPERT
MASTER
(130)
{1},
{2}2h[8:3]/6h[8:3],{8}35,35,{4}2>6[4:1],
{4}6>2[4:1],7,8h[4:1],{8},2,
{8}34,7,56,3,{4}1>4[4:1],6,
{4}8<5[4:1],3,1h[4:1],{8}4,25,
{8}36,47,{4}5>2[8:1]/8,5<8[8:1],5-1[8:1],
{4}5,2>5[8:1]/8<5[8:1],28,{8}3>7[4:1],5,
{4}7>3[4:1],{8}5,6,{4}7h[4:1],1>4[8:1]*-5[8:1],
{4}1,8-4[8:1]*-3[8:1],8,{8}24,24,
{8}3V15[4:1],4,{4}5V73[4:1],{2}4h[4:1],
{4}2h[8:1]/4h[8:1],{8}5b,7b,1b,3b,{4}5h[8:1]/7h[8:1],
{8}4qq5[4:1],3,{4}5<3[4:1],,{8}7x,7x,
{8}1,1,8w4[8:1],8,{4},{8}6>2[4:1],6,
{4}2<6[4:1],6,{8}2,2,3bxV14-7-5[2:1],4bx/5bx,
{2}6h[2:1],{4},3h[8:1]/4h[8:1],
{4}1h[8:1]/2h[8:1],7qq5[8:1]*pp1[8:1]/8,,6h[8:1]/8h[8:1],
{4}1h[8:1]/3h[8:1],{8}8-4[8:1]/2-6[8:1],1,{4},{8}3>7[4:1],5,
{8}7>3[4:1],6,5,6,{4}7h[4:1],1V35[4:1],
{4}8,1V75[4:1],2,{8}1>4[8:1],1,
{4}1<6[8:1],1-5[8:1],1,{8}4/6-1[8:1],5,
{4}46,{8}2-5[8:1]/8,1,28,7,46,3,
{8}35,6,4w8[8:1]/7,3,{4},{8}1-4[8:1]/7,2,
{4}18,3h[4:1]/5<8[8:1],5,{8}4-1[8:1],3,
{8}4-7[8:1],5,4qq3[4:1],3,{4}4,8h[1:1],
{8}5,4,3,2,1,7,6<3[2:1],5,
{8}4,4,4,4,{4}4,1b/7b,
{8}2>6[8:1],6>2[8:1],7,8,8p3[8:1],3q8[8:1],2,1,
{8}1-4[8:1],1-6[8:1],{4}1-5[8:1],{8},7,3-8[8:1],4,
{8}5,6,6-1[8:1],5,4qq8[2:1],3,8,7,
{2}7h[2:1],{8}8,12,34,56,
{8}7<3[8:1],3<7[8:1],2,1,1q6[8:1],6p1[8:1],7,8,
{8}8<2[4:1],2x,2xV46[8:1],1x,{4}1x,{8}2,2,
{8}38,47,{4}5h[4:1]/6-8[8:1],6,{8}78,78,
{8}16,25,{4}3<6[8:1]/4,{2}3pp6[8:3],
{4},{8}8,7,56,56,{4}7h[8:1]/8h[8:1],
{4}1h[8:1]/2h[8:1],{24}3,,3,4,,4,{4}2,3h[8:1]/5h[8:1],
{4}4h[8:1]/6h[8:1],{24}7,,7,5,,5,{8}6,47,36,25,
{8}14,E3,E4,E5,E6,7hx[8:1],{4}5V31[4:1],
{4}6,5<1[4:1],4,{8}5,5,
{8}4v5-7[4:1]*v3-1[4:1],4,{4},,7-4[8:1]/8-3[8:1],
{4}78,2-6[8:1]/1-5[8:1],12,{8}47,47,
{8}3,25,{4}2/5-7[8:1],{8}5-3[8:1],4,5<8[8:1],6,
{4}45,4,4,{8}35,35,
{8}2>4[8:1]/6>4[8:1],17,{4},26,{8}5,5,
{8}3>1[8:1]/7>1[8:1],46,{4},37,{8}4-1[8:1],2,
{8}5-8[8:1],7,2>5[8:1],1,{4}8,7-3[8:1]/4-1[8:1],
{4},4-8[8:1]/2-6[8:1],,{8}8-5[8:1],8,
{4}8>3[8:1],8v5[8:1],8,{8}3>8[8:1]/4,2,
{4}35,{8}7v4[8:1]/8,6,17,2,35,6,
{8}46,3,2/5v7[8:1]*v3[8:1],6,{4},{8}2/8<5[8:1],7,
{4}18,4v1[8:1]/6h[4:1],4,5<8[8:1],
{8}5v2[8:1],4,5pp6[4:1],6,{4},1h[1:1],
{8}4,5,6,7,8,2,3,4,
{8}56,78,12,34,56,78,12,34,
{8}3x/4x,{24}1,,1,7,,7,3,,3,5bx,6,7,8,1,2,{4}3bx,
{8}6<2[8:1],2<6[8:1],3,4,4p7[8:1],7q4[8:1],6,5,
{8}5-2[8:1],5-8[8:1],{4}5-1[8:1],{8},6,3v8[8:1],4,
{8}5,6,6<1[8:1],5,4-1V35-7[2:1],3,7,8,
{2}8h[2:1],{8}7,78,6,45,
{8}3>7[8:1],7>3[8:1],6,5,5q2[8:1],2p5[8:1],3,4,
{8}4>6[4:1],6x,6xV82[8:1],5x,{4}5x,{8}6,6,
{8}47,38,{4}1h[4:1]/2-4[8:1],2,{8}35,26,
{4}7>1[8:1]/1>4[8:1],1q5[8:1]*p5[8:1],1,4bx/6bx,
{4}2h[8:1]/5h[8:1],{24},,25,,,,36,,,47,,4-2[8:1]/7-1[8:1],,,56,,,4b/7b,
{4},{8}1x/8x,3x/6x,4x>1[8:1]/5x,3,6,5,
{8}7-3[8:1],7,1-5[8:1],1,6-3-7>2[2:1],6,5,4,
{2}4h[2:1],{8}3,1,8,6,
{2}6<8[8:1]/5-8[8:1],5v2[8:1]/6<1[8:1],
{2}5q4b[4:1]/6<3b[4:1],{4},{8}2-6[8:1],1,
{8}6,7,8<5[8:1],8,1>4[8:1],1,7-3[8:1],8,
{8}3,2,{4}1q5[8:1],{8}5,{24},,6-2[8:1],,,57,,,8h[24:7],
{4},{8}2,{24},,3,4,,4,{8}2,{8}17,{24},,6,
{24}5,,5,7,,7,3,,3,5,,5,2,,2,{8}4,{4}1h[4:1]/5,
{4}4<8[4:1],2,5>1[4:1],7,
{8}E3,E2,C,E6,{2}E7,
E
Re:MASTER
最終更新:2026年10月01日 19:15