アットウィキロゴ

Splash Dance!!

アーティスト 曲:Q-MHz/歌:オンゲキシューターズ

BPM BASIC ADVANCED EXPERT MASTER Re:MASTER
155 3 7 10 13 -

EXPERT MASTER Re:MASTER
譜面制作者 サファ太 はっぴー -

BASIC


ADVANCED


EXPERT


MASTER

(155)

{1},
{4}2-5[8:1]/4-8[8:1],2x/4x,{8},5,{4}4b/6b,5-8[8:1]/7-4[8:1],5x/7x,{8},1,{4}2b/8b,2-5[8:1]/4-8[8:1],2x/4x,{8},8,1b/7b,2,{16}2/5,,,3/6,,,{8}4/7,4/7,{24}6x,5x,4x,{4}3x<1[4:1],Cf,,,3x/5x,
{16}5/6,,,7,{8}8,2,{16}3/4,,,2,{8}1,7,{16}5/6,,,7,{8}8,2,{16}3/4,,,2,{8}1,7,{4}5>2[8:1]/6,8-4[8:1],2,3-6[8:1]/5-8[8:1],


3/5-1[8:1],5x,{8}3x/7x,8,8,1,1,{16}7,5,,2,{8}4,{4}3h[4:1]/5,4<3[8:3],Cf,,,4/5,2x/7x,2x/7x,{12},1/8,1/8,{8}1/8,,


7h[2:1]/4,4,5,5,{16}4,,,3/6,,,{8}2/5,2h[2:1]/5,5,4,4,{16}5,,,3/6,,,{8}4/7,
4/7h[2:1],4,5,5,{16}4,,,3/6,,,2/5,,{4}2-6[8:1]/5,7-1[8:1],3-5[8:1],8b,
{8}7h[2:1]/5,5,3,2,{16}1,,,1/3,,,{8}2/4,2h[2:1]/4,4,6,7,{16}8,,,6/8,,,
{8}5/7,5/7>2[8:1],,4,4q5[4:1],,6x,{4}6x,8x,B3/B6/E3/E4/E6/E7,{8},4/5,4/5,,

3h[2:1]/8,8,1,1,{16}8,,,2/7,,,{8}1/6,1/6h[2:1],1,8,8,{16}1,,,2/7,,,{8}3/8,
3h[2:1]/8,8,1,1,{16}8,,,2/7,,,{8}1/6,1/6-2[8:1],,3-5[8:1],,7,7,{4}4>2[8:1]/6<8[8:1],
4/6,3>1[8:1]/5<7[8:1],3/5,6h[4:1]/2,8bp3[4:1],,{8}2,2,1x,1,
{16}2/8,,3,4,,7,8,,1/7,,6,5,,2,1,,{4}2/8,4>1[8:1]/6<1[8;1],4x/6x,3x/7x,


{16}2/5,,4-1[8:1]*-7[8:1],3,,,{8}4x,,3/5,3/5<1[4:1],,1>5[4:1],,5,,1,2,3/6,,
{16}4/7,,5>2[8:1]*<8[8:1],6,,,{8}5x,,4/6,4V28[4:1]/6,,8V64[4:1],,4>8[8:1],,8,,4,5,
{4}3h[8:1]/6h[8:1],3h[8:1]/6h[8:1],{16}7/8,,,1/6,,,2/5,,
{4}3h[8:1]/6h[8:1],3h[8:1]/6h[8:1],{16}1/2,,,3/8,,,4/7,,
3/6,,6,5,,2,1,,3/7,,3,4,,7,8,,2b/6b,,3,4,,6,5,,{8}4w8[8:1],3/5,,,


{16}2b/6b,,7,8,,2,1,,3/4,,,4/5,,,5/6,,6b/E1,,,7b/E2,,,8b/E3,,4/8,,6,5,,3,4,,1/2,,,7/8,,,5/6,,
4/7,,6,5,,7,8,,1/2,,3,4,,,1/8,,{8}B3/B4/B5/B6/Cf,,,1x/8x,
1x/8x,,2b/4b,3b/5b,{16}4b/6b,,,3b/7b,,,2,,2z6[4:1],,,6,,,8,,{8}8qq8[4:1],,3,2,
1pp1[4:1],,5,6,{4}7,1-5[8:1]/7-3[8:1],1/7,1x/7x,{12},3/6,3/6,{4}3/6,

{16}4/5,,2,1,,7,8,,5b/6b,,,4b/5b,,,3b/4b,,2/5,,{32}E4,B3,E3,,,,E6,B6,{16}E7,,
1,,2,4,,7,5,,7/8,,,1/2,,,3/4,,2/5,,3,4,,6,{8}5,4h[4:1]/6h[4:1],,,2/7,{2}2qq4[4:1]/7pp4[4:1],
{8},,5-1[8:1]/6-8[8:1],5/6,,,3-1[8:1]/4-8[8:1],3/4,,,4/5,3/6,2/7,2/7pp4[4:1],1,{2}1h[2:1],
{8}3x,2x/4x,5,3/6,{16}7,5,
6,,2,4,3,,6,5,8,,3,4,1,,6,5,


{8}7-1[8:1],,7b,3,4,5,6,5>2[8:1],5<8[8:1],,,1x,1x,3/7,3/7,,
2-8[8:1],,2b,6,5,4,3,4pp6[8:1],4qq2[8:1],,,8x,8x,2/6,1/7,,
{16}2/8,,,3/7,,,{8}4/2,4-2[8:1]/6-8[8:1],5x,4x/6x,,{16}1/7,,,2/6,,,{8}3/5,3-1[8:1]/5-7[8:1],4x,3x/5x,,
{32}E6,B6,E7,,,,E4,B3,{8}E3,5x,{48}E6,B6,B7,E8,,,,,,E4,B3,B2,{8}E2,8x,{4}8w4[8:1],8x,1w5[8:1],1x>7[8:3],


Cf,{8},8x,8x,1x,1,2/7,2/7,{16},7,{8}5,4/8,3/7,2,2/4,2/4,
3/5<8[8:1],,4,,2,2,4,4,3/5,{16}6,5,{8}7<4[8:1],7,3,,2,{16}3,4,
3,,6,5,6,,2,1,2,,7,8,7,,6,,{12}6,5,7,3,4,2,{4}8b,{16}3/6,,8x,7,
1x,2,8x,7,1x,2,8x,7,2x,3,7x,6,2x,3,7x,6,1x,,3x,4,5s1[4:1],,{8}5,{4},,


{4}5q6[8:3],,,,8-5[4:1],,4pp2[8:3],,,
5s1[4:1],,,5q4[4:1]*-8[4:1],,,3/6,
{16}4/5,,,5,4,,5,,4/5,,,5,4,,5,,4/5,,,5,4,,5,,4/5,,,5,4,,5,,
{8}4/6,6,4,4,{16}3,3,5,5,4,4,6,,{4}4/5,1/8,{12}3x/6x,3x/6x,3x/6x,4x/5x,3x/6x,2x/7x,

{4}2-5[8:1]/7-4[8:1],2b/7b,{16}1<7[8:1]/5x,,,5,1>3[8:1],,5,,1-7[8:1]/6,,,6,1-3[8:1],,6,,1<7[8:1]/5x,,,5,1>3[8:1],,5,,
1-7[8:1]/6,,,6,1-3[8:1],,6,,1<7[8:1]/5x,,,5,{8}1,5,1/6,,3pp1[4:1]/5qq7[4:1],3/5,,,,,
1x/5x,,3>8[8:1]/4v7[8:1],2/5,,,5v2[8:1]/6<8[8:1],4/7,,,4/5,3/6,2/7,2pp1[4:1]/7,8,{2}8h[2:1],
{8}2x,3x/7x,4,3/6,{16}7,5,
6,,2,4,3,,6,5,8,,3,4,1,,5/7,,


{4}5-1[8:1]/7<4[8:1],5x/7x,{8},1,{4}2b/8b,2>5[8:1]/4-8[8:1],2x/4x,{8},8,
{4}1b/7b,5-1[8:1]/7<4[8:1],5x/7x,{8},1,2b/8b,7,{16}4/7,,,2/5,,,2/5,,2/5,,{24}3x,4x,5x,{4}6x>8[8:3],
Cf,,,4x/6x,{16}3/4,,,2,{8}1,7,{16}5/6,,,7,{8}8,2,
{16}3/4,,,2,{8}1,7,{16}5/6,,,7,{8}8,2,{4}3/5<8[8:1],1-5[8:1]/5,1/8,4-1[8:1]/6-3[8:1],
4-8[8:1]/6,4x,{8}2x/6x,1,1,8,8,{16}2,4,,7,5,,{4}4/6h[4:1],5,
{32}Cf/4x,3x,2x,1x,8x,7x,6x,5x,4x,3x,2x,1x,8x,7x,6x,5x,4x,3x,2x,1x,8x,7x,6x,5x,4x,3x,2x,1x,8x,7x,6x,5x,{4}4x,4-1[8:1]/5-8[8:1],,2-7[8:1]/6-3[8:1],
2/6,1/5,{16}3x/7x,,,3x/7x,,,2x/6x,,2/6,,3,4,,6,5,,8h[4:1],,{24}5x,4x,3x,2x,E

Re:MASTER


追加しました。シアミラ(2026/02/13 00:41:30)
名前:
コメント:

タグ:

+ タグ編集
  • タグ:
最終更新:2026年04月08日 22:51