アットウィキロゴ

Y.Y.Y.計画!!!!

アーティスト 曲:烏屋茶房/歌:R.B.P. [九條 楓(CV:佳村 はるか)、逢坂 茜(CV:大空 直美)、珠洲島 有栖(CV:長縄 まりあ)]

BPM BASIC ADVANCED EXPERT MASTER Re:MASTER
186 4 7+ 10+ 13 -

EXPERT MASTER Re:MASTER
譜面制作者 Luxizhel 鳩ホルダー -

BASIC


ADVANCED


EXPERT


MASTER

(186)

{1},
{4}3xh[4:3],4,4,5,6xh[4:3],5,5,4,
3xh[2:1],4,4,{8}2x/5x,/2xh[8:7]/5x,{4},B1/B2/D2/E2,B4/B5/D5/E5,B7/B8/D8/E8,
{4}6xh[4:3],5,4,5,3xh[4:3],4,5,4,
6xh[2:1],5,4,{8}3x/7x,3x/7xh[8:7],{4},B7/B8/D8/E8,B4/B5/D5/E5,B1/B2/D2/E2,
3xh[4:1],{8}4,4,,1/2,,7/8,,5/6,{4}5/6,4/7,2/5,4/7-4[8:1],{8}2,1-5[8:1],,7,8-4[8:1],,3,2-5[8:1],,7,8h[4:1],,4,,

5/6,,4/7,4h[8:7]/7,{4},,8,8w4[4:1],,,
3/4,{8}2/5,2/5h[8:7],{4},,1,1s5[4:1],,,
3/6,{8}2/7,{4}2h[8:3]/7h[8:3],,{8},{4}1/8,4/5,A3f/B3/D3/D4/E3/E4,A6/B6/D6/D7/E6/E7,
7xh[4:1]/8xh[4:1],{8},{4}1-5[8:1]/2-6[8:1],1/2,4h[2:1]/7h[2:1],,{8},{4}5-2[8:1]b/6-1[8:1]b,,

3x-1[8:1],{8}4,4,3-8[8:1],,4,4,{4}2-4v5-7[8:3],6,8,8,
6-8[8:1],{8}5,5,6-1[8:1],,5,5,{4}8<4[8:1],3,2,2/4,3/5-7-4V83[2:1],2,1x,1h[4:1],7h[4:1],5h[4:1],4h[4:1],2h[4:1],7<4[8:1],1>4[8:1],8-4[8:1],{8}2,{4}2,1v4[8:1]/7v4[8:1],1/7,{8}2x/6x,2x/6x,,

7,7,5/7,7,6/7,7,7/8,7,{4}1xb-5[8:1]b/7,2xb-6[8:1]b,3xb-7[8:1]b,4xb,
5x/6x,5-1[8:1]/7-4[8:1],5/7,{8},{4}3/4,2-5[8:1]/4-8[8:1],2/4,{8}4bx/7bx,4bx/7bx,,
2,2,1/2,2,2/3,2,2/4,2,{4}2/5bx-1[8:1]b,6bx-2[8:1]b,7bx-3[8:1]b,8bx,
1/2,1p5[8:1]/7-3[8:1],,{8},{4}7/8,8q4[8:1]/2-6[8:1],,{8}3bx/7bx,{4}3bx/7bx,

4/6h[4:11],3v4[4:1],,,3,4q3[4:1],,,
4,3>4[8:3],,,E1f,B2/B7,E4/E5f/E6,,
4h[2:1]/5,2,5h[2:1],7,4,1>4[8:1]/8<5[8:1],,4x-2[8:1],
5-1[8:1],4-8[8:1],5-7[8:1],4>1[8:1],5<8[8:1],4-8[8:1],5-1[8:1],{1}4w8[8:1]b,

{4}5/6,7h[2:1]/B3/B4/E4,,
5,3/4,2h[4:1]/B5/B6/E6,,7h[4:1]/B3/B4/E4,,B2/E2/E3/B6/E6/E7,3bx/5bx,1bxv4[8:1]b/7bxv4[8:1]b,1bx/7bx,


2-5[8:1]/6,{8}2/5,{4}6-1[8:1],4/6,{8}2-6[8:1],,2/7,{4}8-3[8:1]*-5[8:1],8,{8},6,
7-2[8:1],,4/7,{4}3-6[8:1],3/5-8[8:1],1-4[8:1]/5,{8}1/8,{4}7>5[4:1],3,,
5x/7x,{8}4/8,{4}4-1[8:1]/8-5[8:1],4/8,2/6,{8}3/7,{4}3-6[8:1]/7-2[8:1],3/7,4x/8x,
{8}8,1,2/4,1,8,5/7,8,1,{4}2/4,4bx/6bx,2bxv5[8:1]b/8bxv5[8:1]b,2bx/8bx,

7-4[8:1],{8}4/7,{4}3-8[8:1],3/5,6-1[8:1],{8}3/6,{4}2V48[4:1],2/5,,
2-5[8:1],{8}2/5,{4}6-2[8:1],3/6,1/4,{8}2/3,{4}2-7[8:1]b/3-6[8:1]b,2x/3x,,
3-7[8:1]/6,{8}3/5,{4}6-2[8:1],4/6,3,{8}1/8,{4}1/8p1[4:1]*<1[4:1],,,
{8}2x/8x,4,5,1/7,5,4,2/8,2/8,{4}3/7,3bx/6bx,1bx-5[8:1]b/8bxv5[8:1]b,1bx>8[2:3]/8bx,


{1},,{8}6,6,5,7h[4:1],,5,4,3h[4:1],,4,5,6,6<8[8:1],4x,4x,,
3,3,4,2h[4:1],,4,5,6h[4:1],,5,4,3,3h[4:1],4,4,,
6,6,5,7h[4;1],,5,4,3h[4:1],,4,5,5,4,3x/6x,{4}3x/6x,
1/8,1-5[8:1]/8v5[8:1],1/8,,2bx/8bx,2bxv5[8:1]b/8bxv5[8:1]b,2bx/8bx,3x/4x,{1}2p7[2:1]/3q6[2:1],
{4}2bx/8bx,2bxv5[8:1]b/8bxv5[8:1]b,2bx/8bx,,
7/8,7v4[8:1]/8-4[8:1],7/8,,1bx/7bx,1bxv4[8:1]b/7bxv4[8:1]b,1bx/7bx,8-4[8:1],
8x,,B2/B7/B8/C/E1/E3,A4/A5/B4/B5/D4,1bx/7bx,1bxv4[8:1]b/7bxv4[8:1]b,1bx/7bx,,
1/2,1q5[8:1]/2-5[8:1],1/2,,2bx/8bx,2bxv5[8:1]b/8bxv5[8:1]b,2bx/8bx,3xp6[8:1]/7x,
8,8xw4,8x,2x/6x,1bx/7bx,1bxv4[8:1]b/7bxv4[8:1]b,1bx/7bx,,
{8}2bv5[8:1]b/8bv5[8:1]b,2b/8b,2b/8b,,1bv4[8:1]b/7bv4[8:1]b,1b/7b,1b/7b,,2bv5[8:1]b/8bv5[8:1]b,2b/8b,2b/8b,,1bv4[8:1]b/7bv4[8:1]b,1b/7b,1b/7b,,
3/5,3/5,4/6,4/6,2/7,2/7,1x/8x,1x/8x,{64}A1/A8,B1/B8,Cf,E5,{16}D5,,,{64}A1/A8,B1/B8,Cf,E5,{16}D5,,,{64}A1/A8,B1/B8,Cf,E5,{16}D5,,,{4},


7<4[8:1],{8}4/7,{4}3>8[8:1],3/5,6V84[8:1],{8}2/6,{4}1>4[8:1]*<6[8:1],,{8},3,
{4}2>5[8:1],{8}2/6,{4}7-2[8:1],2-7[8:1]/7,3V15[4:1],{8}3/8,{4}7>5[4:1],3,,
5/7,{8}4/8,{4}4-1[8:1]/8-5[8:1],4/8,3/7,{8}2/6,{4}2-7[8:1]/6-3[8:1],2/6,1/5,
{8}1,8,5/7,8,1,2/4,1,8,{4}5/7,3b/5b,1bv4[8:1]b/7bv4[8:1]b,1b/7b,

2>5[8:1],{8}2/5,{4}6<1[8:1],4/6,3V15[4:1],{8}3/7,{4}8<2[4:1],8,,
7-4[8:1],{8}4/7,{4}3-7[8:1],3/6,5/8,{8}6/7,6-3[8:1]/7-2[8:1],,{32}E7,Cf,{16}E3,,,{4},
2/6-2[8:1],{8}4/6,{4}3-7[8:1],3/7,6,{8}1/8,1q8[4:1]*>8[4:1]/8,,{24}E2,E3,E4,E5,E6,E7,{16}E8,,,,
1,8,1,8,2,7,2,7,3,6,3,6,4,5,4,5,{4}4,3b/6b,1b-5[8:1]b/8bv5[8:1]b,1b/8b,


{8}6h[4:1],,5,{4}5,7/8,1/2,{8}3/4,{4}3-8[8:1]/4,3/4-7[8:1],4,2h[4:1],{8}1,{4}1,3/4,5h[4:1]/6h[4:1],{8},7b/B3/B4/D4/E4,,2b/B5/B6/D6/E6,,8b/B3/B4/D4/E4,,
2h[4:1],,1,{4}1,3/4,5/6,{8}7/8,{4}7/8-3[8:1],7-4[8:1]/8,7,
{16}3b,4,3,4,3,,2b,1,2,1,2,,6b,5,6,5,6,,7b,8,7,8,7,,{4}3/4,2/5bv2[8:1]b*v8[8:1]b,5b,{16},,2/7,3/6,4/5,E

Re:MASTER


追加しました。シアミラ(2026/02/18 22:34:45)
名前:
コメント:

タグ:

+ タグ編集
  • タグ:
最終更新:2026年04月11日 18:36