アットウィキロゴ

お願い!コンコンお稲荷さま

アーティスト ARM×狐夢想 feat. ななひら

BPM BASIC ADVANCED EXPERT MASTER Re:MASTER
175 3 7 10 13 -

EXPERT MASTER Re:MASTER
譜面制作者 ロシェ@ペンギン 鳩ホルダー -

BASIC


ADVANCED


EXPERT

(175){1},
{4}4h[4:1]/7h[4:1],,{8}1bx,1bx,1bx>8[8:3],,,,,,,1b,
{4}1b,7x,78,2,12,7,78,16,16,7,78,2,12,1x/7x,1x/7x,2x/8x,3bx/7bx,2x,12,7,78,2,12,38,38,7p4[2:1],,,,{8},2x/5x,{4}2x/5x,3bx/8bx,,
6,57,57,8bx,3,24,{8}24,1bx,{4}1bx,5qq3[4:1]*pp7[4:1],,,,13,13,4bxh[4:1]/8bxh[4:1],,3,24,24,1bx,6,57,{8}57,8bx,{4}8bx,1h[4:1]/2h[4:1],,7h[4:1]/8h[4:1],,4-1>3[8:3]/5-8<6[8:3],,,,4/5h[4:3],7,7,8bx,4h[4:3]/5,2,{8}2,1bx,{4}1bx,4-1[4:1]/6-1[4:1],,,,38,38,2bxh[4:1]/6bxh[4:1],,4h[4:3]/5,2,2,1bx,4/5h[4:3],7,{8}7,8bx,{4}8bx,1pp6[8:5],,,,8,13,68,,
E7,E8,E1,E2,E3,E4,E5,,6-4[8:1],,2-8[8:1],,7p3[4:1],,,,E3,E2,E1,E8,E7,E6,E5,,7-3[4:1]/2-6[4:1],,,,78,56,34,12,{1}8xw4[4:1],8xw4[4:1],{2}C/B3/B6,C/B2/B7,8xw4[4:1],,1b/8b,,,{4}56,34,1bxh[8:1]/6bxh[8:1],1h[8:1]/6h[8:1],3h[8:1]/4h[8:1],3h[8:1]/4h[8:1],1>5[4:1]/8,,1x,8,7h[4:1],5h[4:1],{8}4,4,{4}4>5[2:1],,,,26,45,24,45,24,45,57,45,57,2-5[8:1],7-4[8:1],3,{8}1,1,,8b,8b,8b,{4}8b,,3bxh[8:1]/8bxh[8:1],3h[8:1]/8h[8:1],5h[8:1]/6h[8:1],5h[8:1]/6h[8:1],1/8<4[4:1],,8x,1,2,34,D7f/D6/D5/A5/E7/E6/B6,,1bxpp4[2:1],,,,6,17,3,28,1s5b[2:1],,,,7-5[8:1],1-3[8:1],8-4[8:1],,1h[4:1],3h[4:1],5h[4:1],7,{1}1bxh[2:3]/8bx<6p3[4:5],,{8}2h[4:1]/5h[4:1],,,,7bx/8bx,7bx/8bx,7bx<3[4:1]/8bx,,,,,,,2b/8b,{4}2b/8b,
{1}1pp6>7[4:13],,,,8qq3<2[4:13],,,,{2}8h[2:7],B6,D5,B1,6<7v2p5[4:5],,,,4h[2:7],B3,D2,B8,1>2v5-3[4:5],,,,{4}4h[4:1],3h[4:1],2h[4:1],1h[4:1],8h[4:1],7h[4:1],6h[4:1],5h[4:21],4,2,8,6-8z4-2-7[2:3],{1},,6<4q7[4:7],,,,{4}1,28,37,4<1b[2:1]/6h[4:1],{1},
{4}1bxh[8:1]/6bxh[8:1],3h[8:1]/4h[8:1],1h[8:1]/6h[8:1],3h[8:1]/4h[8:1],1>5[4:1]/8,,1x,8,7h[4:1],5h[4:1],{8}4,4,{4}4>5[2:1],,,,26,56,17,56,17,34,28,34,28,7-4[8:1],2-5[8:1],6,{8}8,8,,1b,1b,1b,{4}1b,,3bxh[8:1]/8bxh[8:1],5h[8:1]/6h[8:1],3h[8:1]/8h[8:1],5h[8:1]/6h[8:1],1/8<4[4:1],,8x,17,2,34,D7f/D6/D5/A5/E7/E6/B6,,8bxqq5[2:1],,,,34,78,56,12,8z4b[2:1],,,,2-4[8:1],8-6[8:1],1-5[8:1],,8h[4:1],6h[4:1],4h[4:1],2,{1}1bx>3q6[4:5]/8bxh[2:3],,{8}2h[4:1]/5h[4:1],,,,7bx/8bx,7bx/8bx,7bx<3[4:1]/8bx,,,,,,,2b/8b,{4}2b/8b,
1x,34,8,56,1,3h[2:1]/4<8[4:1],,,1,34,8,56,2x/8x,2x/8x,1x/7x,2bx/6bx,8x,56,1,34,5/6h[2:1],8>4[4:1],,,5h[4:3]/6h[4:3],,,,{8},4x/7x,{4}4x/7x,34,1bx/8bx,
E

MASTER

(175){1},
{4}3h[4:1]/5h[4:1],,{8}1b/7b,1b/7b,1b/7b,,6,6h[4:1],4,4,,2b/8b,2b/8b,,{4}3>8[8:1],6<1[8:1],4p7[8:1],5q2[8:1],3>8[8:1],6<1[8:1],4p7[8:1],5,6-4[8:1]/8-4[8:1],,1-5[8:1]/3-5[8:1],,56,78,12,34,6<1[8:1],3>8[8:1],5q2[8:1],4p7[8:1],6<1[8:1],3>8[8:1],5q2[8:1],4,{1}6pp6[2:1]/3qq3[2:1],{16},,4,5,4,,{8}36,{2}3b/6b>3[8:1],
{8}2,2,4,4,3h[4:1],,1b,,7,7,5,6,6h[8:1],8b,8b,,{16}6<8b[8:1],5,6,5,6b,,,,3>1b[8:1],4,3,4,{8}3b,,1b,2b/8b,3b/7b,4b/6b,5bqq3b[8:1]*pp7b[8:1],,,,6,6,5,5,7h[4:1],,8b,,2,2,4,3,3h[8:1],5b,5b,6xh[8:1],4xh[8:1],A8/E8/B8,A2/E3/B2,5xh[8:1],3xh[8:1],A7/E7/B7,A1/E2/B1,6x,{1}6x-8-4[2:1]/5x-1-3[2:1],{8}2,2,1,3,4h[4:1],,1b,,7,7,8,6,5h[8:1],8b,8b,,{16}7<4[8:1],8,7,8,7b,,,,2>5[8:1],1,2,1,{8}2b,,7,56,4V28[8:3]*-8[8:3]/5,,,,,,7,7,8,6,5h[4:1],,8b,,2,2,1,3,4h[8:1],1b,1b-5b[4:3],,{1}1h[4:3],{16}37,,6,5,6,,3,4,{8}3,26,2b/6b,,
3q5[4:1],,,8,8-4[8:1],,,,2q5[4:1],,,8,8-4[8:1],,,,3q5[4:1],,,8,8-4[8:1],,,,E3,E6,E4,E7,E5,,46,,3/5p4[4:1],,,1,1-5[8:1],,,,6p4[4:1],,,1,1-5[8:1],,,,{1}E3f/E7/E4/E6/B3/B6,{4}7h[4:1],5h[4:1],4h[4:1],2v5-3-8[2:1],7h[4:1],,7b,7bv4-6-1[2:1]/8b,2h[4:1],,2b,1b<6[8:1]/2b,1p4[8:1],,A3/A5/E3/E6,A4/A6/E4/E7,2,1p4[4:1]*<6[4:1]/2,,,{1}Cf/E7/E3,{8}27,27,36,36,4-1[8:1]/5-8[8:1],,,,
2b-6[8:1]/7b,,8,8,5/7-3[8:1],,1,1,2/4q8[8:1],,3,3,1b/2b,,2,2,13,,56,7,{16}7,8,,8,{8}7>4[4:1],1,E1f,,,,45,{16}6,5,6h[8:1],,4,,4,,3,4,3h[8:1],,6,,6,,7,8,7h[8:1],,3,,3,,2,1,{8}2h[8:1],6,6,,57,,{16}4h[16:3]/6,,,5,3,,24,,5h[16:3],,,4,{8}6,57,,4b/8b,3b/7b,2b/6b,5bq1[8:1]/1bq5[8:1],,A1f/A5,,8v6[8:1]/4v2[8:1],,,,1v3[8:1]/5v7[8:1],,,,6h[4:1],,5v8[8:1]*p1[8:1],46,5b,,7,7,78,6,35,,{16}1bx,1bx,,8,{8}8-4[8:1],7,4w8[4:1]/8,,A4f,,,,7,6,5,4,3,2,{4}1-3[8:1]/8-6[8:1],1-5[8:1]/8-4[8:1],1>4[8:1]/8<5[8:1],8z4b[4:1]/1s5b[4:1],1b/8b,,3/6pp8[4:1],8<5[4:1],5p1[4:1],1V75[4:1],5V31[4:1],1,5,47,{16}6h[8:1],,5,5,7b,,4,,3h[8:1],,4,4,2b,,6,,7h[8:1],,8,8,6b,,1,,2h[8:1],,1,1,{8}3b,7,6-1[8:1]/4-1[8:1],,,,2b/8b,2b/8b,3b/7b,,{16}3,,3,5,{8}3h[8:1],4,,1b/7b,2b/6b,,
{1}3qq2>5[4:5],,6pp7<4[4:5],,2>6qq5[4:5],,7<3pp4[4:5],,{2}3v6[4:3],E1,2<7[4:3],E1,2q7[4:3],E1,3<6[4:3],E1,3p6[4:3],E5,2p6[4:3],E5,2<7[4:3],E5,6,46,{16}3h[16:3]/5,,,4,3,,5,,3h[16:3]/5,,,4,3,,5,,3h[16:3]/5,,,4,{8}3,5,35,46,57,,6h[8:1],5,4h[8:1],5,7h[8:1],5,3h[8:1],5,{1}4bV62[4:5]/6bV48[4:5],,1b-6-3<4[4:5]/7b-2-5>4[4:5],,3h[4:3]/7h[4:3],2h[4:3]/6h[4:3],{8}35,35,35,35,{16}6,4,6,4,6,4,6,4,{4}8b,,7v4[8:1]/3v8[8:1],,
{16}2bq6[8:1]/6b,,,1,2,,8,,7p3[8:1],,,8,7,,1,,2<7[8:1],,,4,{8}2,5,1b/6b,,7,7,68,,34,2,{16}2,1,,1,{8}2>7[4:1],8,Cf,,,,18,{16}2,1,3h[8:1],,4,,4,,7,8,6h[8:1],,5,,5,,3,4,2h[8:1],,1,,1,,6,5,7h[8:1],,8,,{4}8,18,{16}1h[16:3]/3,,,2,8,,7,,6/8h[16:3],,,7,{8}8,16,,7b/8b,5b/6b,3b/4b,{4}1bV75b[8:1]*V35b[8:1]/2b,A1f,4bxv2[8:1]/6bxv8[8:1],46,3v1[8:1]/5v7[8:1],35,6h[4:1],{8}5-8[8:1]*-2[16:1],46,5b,,1,1,12,3,46,,{16}8b,8b,,1,{8}1-5[8:1],2,1/5w1b[4:1],,A5f/E6/E5,,,,2,3,4,5,6,7,8-4b[8:1],1-5b[8:1],8b-6b[8:1],1b-3b[8:1],8b-4b[8:1],1b-5b[8:1],8b<1b[4:1],1b,{4}8b,,3qq1[4:1]/7,1>4[4:1],4q8[4:1],8V24[4:1],4V68[4:1],8,4,25,{16}3-8[8:1],,4,4,3b,,5,,6-1[8:1],,5,5,6b,,4,,2-5[8:1],,1,1,2b,,8,,7-4[16:1],,8,8,{8}7b,1,3-6[8:1]*-1[8:1],,,,7b/8b,1b/6b,2b/5b,,6,{16}6,5,{8}7,4h[4:1],,8b,2b/6b,,
{4}1-6[8:1],3-8[8:1],5-2[8:1],7-4[8:1],1-6[8:1],3-8[8:1],5-2[8:1],8,1<6[8:1]/2v5[8:1],,8>3[8:1]/7v4[8:1],,5b/6b,1b/2b,7b/8b,3b/4b,2-5[8:1],8-3[8:1],6-1[8:1],4-7[8:1],2-5[8:1],8-3[8:1],6-1[8:1],4,{1}3-1-4[2:1]/6-8-5[2:1],{16},,4,5,{8}4,36,1>4[8:1]/8<5[8:1],,{32}1b/8b,D2/D8,D3/D7,D4/D6,D5f,
E

Re:MASTER


名前:
コメント:

タグ:

+ タグ編集
  • タグ:
最終更新:2026年03月31日 19:42