アットウィキロゴ

EYE

アーティスト Kanaria

BPM BASIC ADVANCED EXPERT MASTER Re:MASTER
137 2 6 9 13 -

EXPERT MASTER Re:MASTER
譜面制作者 Jack サファ太 vs 翠楼屋 -

BASIC


ADVANCED


EXPERT


MASTER

(137)
{16}4,4h[8:1],,5,4,5,
{8}4,3/5,4>8[4:1],5,6,,7,7h[4:1],,6,5<1[4:1],4,3,,2,2h[4:1],,
{8}3,4>8[4:1],5,6,,7,7h[4:1],,5,6/4,5/3,
{24}E3,B3,B5,
{8}E6,8,7/1,,3,4>2-8[4:1],5,6,,7,7h[4:1],,6,
{8}5<7-1[4:1],4,3,,2,2h[4:1],,3,
{8}4>2-8[4:1],5,6,,7,7h[4:1],,5,6/4,5/3,
{24}E4,B4,B6,
{8}E7,1,
{4}8/2-4[8:1],6h[4:1],5-8[8:1],7h[4:1],
{8}1,1,8,7,6/5-1[8:1],7,
{4}8h[4:1],1x,2h[8:1]/4h[8:1],4h[8:1]/5h[8:1],
{16}6,5,,7,
{8}8,1/7,8,7,6-1[8:1],5,
{4}4h[4:1],1x,2-5-1[4:1],
{8}5,6,7-3[8:1],,1,1,2,3,4/5-1[8:1],3,
{4}2h[4:1],1x,3bxh[8:1]/5h[8:1],4bxh[8:1]/6h[8:1],
{16}7,8,,2,
{8}1V35V31[2:1]*V75V71[2:1],1,,,,,,,
{4}B5,3-8[8:1]/7-4[8:1],3/7,
{8}2/5,3>1[8:1]/6-4[8:1],,6/3qq4[4:1]b,,8bxh[4:1],,,5,4/6,3,2/4,
{4}1-5[8:1]/5-7[8:1],5/1,
{8}8/4,3-8[8:1]/7-4[8:1],,3/7,,1,2-6[8:1],5-8[8:1],
{4}6,C,2-5[8:1]/6-1[8:1],6/2,
{8}8/4,3-1[8:1]/7-4[8:1],,3/7s3[4:1]b,,1bxh[4:1],,,4,5/3,6,7/5,
{4}8v6[8:1]/4v2[8:1],8/4,
{8}7x/3x,4,6/5,4,8/3bx,4,1/6bx,5,8bx/2,4,7bx/1>4[16:1]b,5,
{48}1b/6bxh[8:3],,,,,,,,,1b,,B1,,C,B5,A5,,,1b,A2,D3,A3,D4,,
{8},7,8<5[16:1]b,4,
{48}8b/3bxh[8:3],,,,,,,,,8b,,B8,,C,B4,A4,,,8b,A7,D7,A6,D6,,
{8},2,1/5,6,3h[16:3]/7h[16:3],,3/7,6,5/4,2,6/5,7,
{8}6/4bx,1,3/5bx,8,2bx/4,1,3bx/8<5[16:1]b,,
{48}8b/2bxh[8:3],,,,,,,,,8b,,B8,,C,B4,A4,,,8b,A7,D7,A6,D6,,
{8},2,1>4[16:1]b,5,
{48}1b/7bxh[8:3],,,,,,,,,1b,,B1,,C,B5,A5,,,1b,A2,D3,A3,D4,,
{8},7,8/4,3,
{16}2h[16:3],,,4,
{8}3,6,7/5,8/4,3,2/4,5h[4:1],E5,4h[4:1],C,6h[4:1],E1,1b,,
{16}E7/B6/B5/E5/B4/B3,,,A8/B8/C/B2/A2,,,D1/E1/B1/E2/D2,,
{4},,
{16}B8/E8/A7/E7/A6/E6/B5,,,B1/E2/A2/E3/A3/E4/B4,,,Ch[8:1],,,,,,
{8}8b/1b,,3,4-2<8[4:1],5,6,,7,7h[4:1],,6,
{8}5-7>1[4:1],4,3,,2,2h[4:1],,3,
{8}4-2<8[4:1],5,6,,7,7h[4:1],,5,6/4,3/5,
{24}E3,B3,B5,
{8}E6,8,1/7,,6,5<7-1[4:1],4,3,,2,2h[4:1],,3,
{8}4>2-8[4:1],5,6,,7,7h[4:1],,6,
{8}5<7-1[4:1],4,3,,2,2h[4:1],,4,3/5,4/6,
{24}E6,B5,B3,
{8}E3,C,7/1h[4:1],,8,7,6V84-2[8:3],4,3h[4:1],,,,
{8}1,2,3V15-7[8:3],5,6h[4:1],,,,
{8}8,1,2/5,3/4,4/7,6/5,2/5,3/4,E7/A7,E6/B5,A1/E2,E3/B3,8w4[8:1],,,,
{8}3x/5x,2,7V51-3[8:3],1,2h[4:1],,,,
{8}1,2,3V15-7[8:3],5,6h[8:3],,,,
{8}8,1,2/5,3/4,6/5,7,8V26-4[4:3],4,8,,,,
{4},1,2-6[8:1]/6-1[8:1],2/6,
{8}7/3,2-4[8:1]/6<1[8:1],,2/6pp6[4:1]b,,4bxh[4:1],,,3,2/4,5,6/4,
{4}3-7[8:1]/7-4[8:1],3/7,
{8}1/5,6-2[8:1]/2-5[8:1],,2/6,,8,7<4[8:1],3-8[8:1],
{4}2,C,7-1[8:1]/3-5[8:1],7/3,
{8}4/8,7-4[8:1]/3>8[8:1],,3/7s3[4:1]b,,1bxh[4:1],,,2,1/3,5,6/4,
{4}7-4[8:1]/3v8[8:1],7/3,
{8}1/5,2/4,3/5,4/6,8x/2bx,4,1/7bx,5,8/3bx,4,7bx/1>4[16:1]b,5,
{48}1b/6bxh[8:3],,,,,,,,,1b,A8,D8,A7,D7,,,,,1b,2bx,3bx,4bx,5bx,,
{8},7,8<5[16:1]b,4,
{48}8b/3bxh[8:3],,,,,,,,,8b,A1,D2,A2,D3,,,,,8b,7bx,6bx,5bx,4bx,,
{8},2,1/5,6,7h[16:3]/3h[16:3],,3/7,6/4,5/3,2,4/6,8,
{8}1/7bx,4,8/2bx,5,7/1bx,4,2bx/8<5[16:1]b,,
{48}8b/3bxh[8:3],,,,,,,,,8b,A1,D2,A2,D3,,,,,8b,7bx,6bx,5bx,4bx,,
{8},2,1>4[16:1]b,5,
{48}1b/6bxh[8:3],,,,,,,,,1b,A8,D8,A7,D7,,,,,1b,2bx,3bx,4bx,5bx,,
{8},7,8/2,6,
{16}4/7h[16:3],,,5,
{8}6,3/4,5/2,1,8/7,6,
{4}B5/E5f/A5/D5/A4/B4,B1/E2/A2/E3f/A3/E4/B4,B8/E8/A7/E7f/A6/E6/B5,Cf/B7/B6/E7/D7/B2/B3/E3/D3,
{8}1/8,8/1<7-4[4:1],2,3,,1,1,,1/2,
{8}1/8-2>5[4:1],7,6,,8,8,7,4/6-4[8:1],,3,2h[4:1],,3,4-1[8:1],5,
{8}6-3-8[4:1],,1x,1>6[4:1],,7bh[4:1],,,8/7,
{8}8/1<7-3[4:1],2,3,,1,1,,1/2,
{8}1/8>2-6[4:1],7,6,,8,8,7,6/5qq5[4:1],,8,7h[4:1],,,5/7-3[8:1],,1,1,2/4,
{24}3,5,4,6,,,7/2,,,A8/D1/A1/E1/B8/B1/C/B5/B4/E5/A5/D5/A4,
E

Re:MASTER


名前:
コメント:

タグ:

+ タグ編集
  • タグ:
最終更新:2026年02月19日 23:37