| アーティスト |
カラスヤサボウ feat. もるでお |
BASIC
ADVANCED
EXPERT
MASTER
(202){4}
,,,2-6[8:1],
2b,5,5,5,5,5,5,46,
3,3,3,3-5[8:1],7-3[8:1],2>8[8:3],8,,
5,56,3,24,7,78,1,2z6[2:3]/8,
6,,,,,,7-3[8:1],7b,
24,{8}5x,6h[4:1],,4,5x,3h[4:1],,4,5x,4,6,5,5x,7,
4/8-4[8:1],,3x,3,5,5,3x,7V51[4:1],,2,3x,4,,28,3x/7,,
4V25[4:1]/5,,7x,7,,8,7x,1h[4:1],,7,7x,4,6,5,7x,4,
2/6-4-7[4:1],,1x,1,,3,1x,2/8-5[8:1],,8,1x,3h[4:1],,4,1bx/5,,
7/8^3[8:1],,,5^8[8:1],{4},2h[4:5],,E1/B1/B8,D4/A3/E4,D7/A7/E7,
1^6[8:1],{8},4^1[8:1],{4},7h[4:5],,E1/B1/B8,D6/A6/E6f,D3/A2/E3,
8^3[8:1],{8},5^8[8:1],{4},2h[2:1],,1-5[8:1],18,3/7^4[4:1],
4^1[4:1],1^6[4:1],6^3[4:1],3^8[4:1],8^5[4:1],5,{8}3,4,2v7[8:1]/5,,
7,,8,8h[4:1],,7h[4:1],,6h[4:1],,5,4,3,2-5[8:1],1,,,
7-4[8:1],,1,1h[4:1],,2h[4:1],,3h[4:1],,4,5,36,,18,1^4[8:1]/8^5[8:1],,
1x/8x,,{16}2,7,2,7,2,7,2,7,2,7,2,7,2,7,2,7,2,7,2,7,2,7,2,7,{8}3x/6x,,
12,34,56,7-3-7[16:3]/8,,1b,{1}1bh[1:1],{8}Cf/B4/B5,,
7^4[8:1]/8,,37,,2,1,38,,1/2^5[8:1],,26,,7,8,1-5[8:1]/6,,
1/6V47[16:3],,4,2-6[8:1],,2/8^5pp4b[8:5],,1bxh[8:5]/8bx,{4},,,2x-6[8:1]/3,
1x-5[8:1],8x-4[8:1],7x-3[8:1],6x-2[8:1],5x-1[8:1],4x-8[8:1],3x-7[8:1],2x-6[8:1],
{8}1,1,8,8,7,6,4,3,25,1,78,6,45,3,12,37,
6p4[8:3],,1,1,,3,3,4,2p8[8:3],,5,5,,7,7,8,
1/6h[4:1],,5,3-8[8:1]/7-4[8:1],,37,,2/6<4[4:1],,Cf,,,{16}1x,2x,3x,4x,8x,7x,6x,5x,
{8}2,2,5,3,4,4,25,1,7,7,4,6,5,5,47,,
12,38,47,5x/6x-1[8:1],,3x-8[8:1]/6x,,3x/4x,,15,26,37,4/8-4[8:1],,1b/8b,,
3,3,4x,2h[4:1],,4,4x,3h[4:1],,4,4x,3,5,2,4x,1,
6,6,5x,7h[4:1],,5,5x,6h[4:1],,5,5x,6,4,7,5x,8,
3,3,2x,4h[4:1],,2,2x,3h[4:1],,2,2x,3,1,4,2x,5,
4,4,7x,5h[4:1],,7,7x,6h[4:1],,7,7x,6,8,5,7x,4,
{24}D7,D6,D5,{2},,,{8},,,
{24}D3,D4,D5,{2},,,{8},,,
D8/A7,,,E7,,,E6,,D2/A2,,,E3,,,E4,,
E1,,,,E5,E6,E7,E8,E1,E2,E3,E4,,5xh[8:3],{4},
4,4,5,5,6,6,{8}7,5,{4}5x/7,
5,5,4,4,3,3,{8}2,4,2/4x-8[8:1],,
,,{16}1,7,1,7,1,7,1,7,1,7,1,7,1,7,1,7,1,7,1,7,1,7,1,7,{8}8b,,
D6/A6/E6f,D2/A2/E2f,D8/A7/E8f,D4/A3/E4f,,D1/E1f,{4}Cf/B4/B5,,,,4b>4^2[8:11]/5b^8[32:13],
4x/5x,,,,,{16},,8x,8x,{8}1bxh[2:1],,,,
7-3[8:1],,1,1^4[8:1]*^6[8:1],,1-4v2-5[8:5]*-6v8-5[8:5],,1b,{4},,,1x-5[8:1],
1x^6[8:1],1x^4[8:1],1x-6[8:1],1x-4[8:1],1xV75[8:1],1xV35[8:1],1x-5[8:1],1x^6[8:1]*^4[8:1],
1x,2x/8x,{8}1,2,3,4,57,7,34,3,56,6,24,2,
7q1[8:3],,4,4,,2,2,1,3q5[8:3],,8,8,,6,6,5,
3h[4:1]/8,,4,2-5[8:1]/6-1[8:1],,26,,3>5[4:1]/7,,Cf,,,{16}8x,7x,6x,5x,1x,2x,3x,4x,
{8}7h[4:1],,8,1/6-1[8:1],,5,,3h[4:1],,4,25,16,{4}7-2[8:1]/8h[4:1],7b,
3-8[8:1]/4h[4:1],3b,2-6[8:1:]/6-4[8:1],2b/6b,1^4b[8:1]/8^5b[8:1],1x/8x,{16}1,8,1,8,1,8,1,8,
{8}2bxq6[8:1]/7bx,,12,,7,8,16,,2/7p3[8:1],,78,,2,1,3/8-4[8:1],,
3V52[16:3]/8,,5,7-3[8:1],,1^4qq5-7b[8:5]/7,,1b/8bh[8:5],{4},,,1x/2x-5[8:1],
2/6x-1[8:1],3x^8[8:1]/6,3/7x-2[8:1],4x-1[8:1]/7,4/8x-5[8:1],3x-6[8:1]/8,3/7x^4[8:1],1xw5[8:1]/7,
1b,3x/7x,{8}24,3,4,5,46,7,35,2,57,8,24,15,
7pp6[8:3],,5,5,,2,2,4,3pp2[16:5],,1,1,,7,7,8,
1/6h[4:1],,5,4/8-4[8:1],,8w4b[8:1],,Cf,,1xb/7xb,4bx/5bx,2bx/8bx,{16}7x,6x,5x,4x,1x,2x,3x,4x,
7,,7,,4,,6,5,7,,7,,1,,8,,2,,2,,5,,3,4,{8}2^7[8:1],,27,,
45,36,27,1x^4[8:1]/8x^5[8:1],,1x-5[8:1]/8x-4[8:1],,1x/8x,,2-6[8:1],7-3[8:1],2,7,,1b/8b,,
2h[4:1]/4,,1,38,,46,4/6h[4:1],,5,47,,25,2q6[8:1]/5,,12,,
5/7h[4:1],,8,16,,35,3h[4:1]/5,,4,25,,47,4/7p3[8:1],,78,,
2,2,1,3h[4:1]/8,,4,25,,18,7,6,5,24,3,45,6,
7,7,8,1/6h[4:1],,5,5,46,,28,37,46,5^8[8:1],1^4[8:1],5,1,
{1},E
Re:MASTER
最終更新:2026年03月25日 18:25