EASY
BASIC
ADVANCED
EXPERT
MASTER
(138)
{16}3h[16:3],,,4,,,3/5,,6h[16:3],,,5,,,6/4,,
{16}3h[16:3],,,4,,,3/5,,6h[16:3],,,5,,,6/4,,
{16}3h[16:3],,,4,,,2/5,,6h[16:3],,,5,,,7/4,,
{16}3h[16:3],,,4,,,2/5,,6h[16:3],,,5,,,7/4,,
{16}4h[16:3],,,3,,,8/1,,5h[16:3],,,6,,,8/1,,
{16}4h[16:3],,,3,,,8/1,,5h[16:3],,,6,,,
{8}8/1,3,4,3,2/4,6,5,6,7/5,3,2/4,6,7/5,2,3/8,
{8}1b/6b,,1-5[8:1],,7,7-3[8:1],,1,1-6[4:1],,6>2[4:1],,,,,1,8/2,7/3,
{16}6,5,,3,4,,
{8}6-3[8:1],,7-2[8:1],,6>3[8:1],,1,1-5[4:1],,5>2[8:1]*<8[8:1],,,,
{8}8-4[8:1],,2,2-6[8:1],,8,8-3[4:1],,3<7[4:1],,,,,8,7/1,6/2,
{16}3,4,,6,5,,
{8}3-6[8:1],,2-7[8:1],,3<6[8:1],,8,8-4[4:1],,4>1[8:1]*<7[8:1],,,,,
{8}3h[8:3],4,5,6h[4:1],,8,1/8<5[4:1],,1,2,
{16}3>7[4:1]*pp5[4:1],3,{4},,
{8},6h[8:3],5,4,2h[4:1],,1,8,
{4}1/7-4[8:1],2-5[8:1],8-4[8:1],1,
{8},7,6,5,4/3-8[8:1],,7,7-4[8:1],,1,1,
{16}3,4h[16:5],
{8},,5,6,7h[4:1],,8,2/3,,4,5,6,
{4}7>2[4:1],2-6[4:1],6-3[8:1],3b,
{8},6h[8:3],5,4,3h[4:1],,1,8/1>4[4:1],,8,7,
{16}6<2[4:1]*qq4[4:1],6,{4},,
{8},3h[8:3],4,5,7h[4:1],,8,1,
{4}8/2-5[8:1],7-4[8:1],1-5[8:1],8,
{8},2,3,4,5/6-1[8:1],,2,2-5[8:1],,8,8,
{16}6,5h[16:5],
{8},,4,3,2h[4:1],,1,7/6,,5,4,3,7/2,,6/3,8bqq6[4:1]/1bpp3[4:1],,,,,
{8}2,1>4[8:1],8,7,6,5<8[8:1],4,3>8[8:1],,7,7<4[8:1],,1>4[8:1],,5<8[8:1],
{8}5,4,3,2>5[8:1],1,8,7,6,5-2[8:1],,4-7[8:1],,8,8,,
{8}8/1,2,3,4>1[8:1],5,6,7,8<5[8:1],1,2>5[4:1],,6,7,8,1/2,,
{8}7<4[8:1],8,1,2<7[8:1],3,4<7[16:3],,3,2,1,
{4}8-4[8:1],7-3[8:1],6-2[8:1],5b,
{8}7,8<5[8:1],1,2,3,4>1[8:1],5,6<1[8:1],,2>5[8:1],,7,8<5[8:1],,
{8}1,2,3,4,5>2[8:1],6,7,8,1<6[8:1],2,3,4,5>2[8:1],6,8<5[8:1],,
{8}4,3,2z6[4:1],,,8-4[8:1],8,,2,3,
{4}4-8[8:1],5-1[8:1],6-2[8:1],
{8}7w3[4:3],7,{1},{8}6/5,7/4,3/8,
{16}2,1,,5,6,,
{8}3/4,8/7,2-6[8:1],,8,8-4[8:1],,1,1q5[4:1],,5>1[4:1]*pp7[4:1],,,,,8,7/1,6/2,
{16}3,4,,6,5,,
{8}3-6[8:1],,2-7[8:1],,3<6[8:1],,8,8-4[4:1],,4V68[8:1]*V28[8:1],,,,
{8}7-3[8:1],,1,1-5[8:1],,8,8p4[4:1],,4<8[4:1]*qq2[4:1],,,,,1,8/2,7/3,
{16}6,5,,3,4,,
{8}6-3[8:1],,7-2[8:1],,6>3[8:1],,1,1-5[4:1],,5V31[8:1]*V71[8:1],,,,
{8}7,8v6[8:1],1,2,3,4v2[8:1],5,6v8[8:1],,3,2v4[8:1],,8v6[8:1],,
{8}3,4,5,6,7v5[8:1],8,1,2,3,4-7[8:1],,5-2[8:1],,1,1,,
{8}8/1,7,6,5v7[8:1],4,3,2,1v3[8:1],8,7v5[8:1],,4,3,2,8/1,,
{8}2v4[8:1],1,8,7v1[8:1],6,5v3[16:3],,6,7,8,
{4}1-5[8:1],2-6[8:1],3-7[8:1],4b,
{8}2,1pp2[8:1],8,7,6,5pp6[8:1],4,3qq2[8:1],,7qq6[8:1],,2,1pp2[8:1],,
{8}8,7,6,5,4pp5[8:1],3,2,1,8pp1[8:1],7,6,5,4pp5[8:1],3,2qq1[8:1],,
{8}5,6,7s3[4:1],,,1-5[8:1],1,,7,6,
{4}5-1[8:1],4-8[8:1],3-7[8:1],
{8}2w6[4:3],2,{1},{8}6/5,7/4,8/3,
{16}2,1,,5,6,,
{8}2/4,7/5,1pp4[4:7]/8qq5[4:7],
E
Re:MASTER
最終更新:2026年10月03日 22:31