BASIC
ADVANCED
EXPERT
MASTER
(200)
{4}Ch[4:11]/3p6<2[2:3],,,,,,,,{8}3-6[8:1],,,,7-4[8:1],,,,
{4}1x/B7f,8x/B2f,3bx/6bx,,7x-3[8:1],8-4[8:1],1-5[8:1],2-6[8:1],8<5[4:1],5<8[4:1],
{8}3,2,1,,
{4}2x-6[8:1],1-5[8:1],8-4[8:1],7-3[8:1],1>4[4:1],4>1[4:1],
{8}6,7,8,,
{4}3x-5[8:1]/7x-5[8:1],,{8}4x/6x-8[8:1],
3,2,,
{4}2x-4[8:1]/6x-4[8:1],,
{8}5x/3x-1[8:1],6,7,,{4}7x<3[4:1],3>7[4:1],7<3[4:1],3,{8}7,8,1,2,36,,7b/8b,,
{4}3h[4:3],B4/A4,,A7/B7,6h[4:3],A5/B5,,A2/B2,3h[4:3],B4/A4,,6,
{8}8x/7x,8x/7x,,
{4}3x/6x,
{8}1x/2x,1x/2x,,{4}3qq8[4:2],4,5,6,6pp1[4:2],4,3,2,3v8[8:1],4,6v1[8:1],4,2-5[8:1],2/7-4[8:1],73,12,8h[4:1]/3,3,1h[4:1]/3,3,
{8}83,7,63,7,83,,26,,
{4}1h[4:1]/6,6,8h[4:1]/6,6,{8}61,2,3,5/4-1[8:1],,{4}45,
{8}8,8x-4[8:1]/3hx[2:1],,,,5,6,7,,
{4}2x-6[8:1]/8x-4[8:1],,
{8}3,2,1,,
{4}8x/2xq6[8:1],7,5x/6xq2[8:1],
{8}3,3,,45,,67,,
{16}1,8,2bx/7bx,,,,
{1}3h[4:3]/Ch[4:3],
{8}12,1h[4:1]/2,,8h[4:1],,
{16}7,6,5,,,,
{1}6h[4:3]/Ch[4:3],
{8}87,8h[4:1]/7,,1h[4:1],,
{16}2,3,4,,,,65,,7,,65,,4,,6,5,6,5,6,,4,,35,,2,,34,,5,,3,4,3,4,3,,6,,
{8}5x/7x>2[8:1],,2,,3x<6[8:1],,6,,7x/8x,,1,2,3,4,4bx/5bx,,
{4}4x/3xp7[8:1],3/4q8[8:1],4/3>8[8:1],37,
{8}56,,78,7/8-4[8:1],,5,,6,6xq2[8:1]/5,,
{4}6/5p1[8:1],5/6<1[8:1],6/2,3b/4b,
{8}18,1b/8b,,56,5b/6b-4[8:1],,6bx/3,,
{16}2,1,2,,7,8,7,,5/6-4[8:1],,,,6bx/3,,,,2,1,2,,7,8,7,,56,,,,
{8}4x/3x-8[8:1],,8,7,6x-1[8:1]/5,,1,2,3/4-1[8:1]*-7[8:1],,4b,,2b/6b,,4b/5b,,
{4}5x/6xq2[8:1],6/5p1[8:1],5/6<1[8:1],62,34,
{8}21,2/1-5[8:1],,4,,3,
{4}3xp7[8:1]/4x,3/4q8[8:1],4/3>8[8:1],73,56,
{8}34,3-1[8:1]/4-6[8:1],,34,,78,7b/8b,,
{16}1x/5x,2,3,4,1x,8,7,6,5x/3x,,,,1b/2b,,,,8x/4x,7,6,5,8x,1,2,3,4x/6x-8[16:1],,,,{32}5x,4x,3x,,,,,,{16}2bx-4[16:1],,,,{32}1x,8x,7x,,,,,,{16}6x/5x,,
{4}4bh[8:3]/7bh[8:3],,
{8},26,2bpp5[8:7]/6bpp1[8:7],,26,,,,,,,,,
{4}84,83,82,81,
{8}2h[8:1],3h[8:1],4h[8:1],5h[8:1],6h[8:1],7h[8:1],8h[8:1],1h[8:1],2x,,3x/4x,3x/4x,,8x/7x,8x/7x,,6h[2:1],5,5,5,3h[2:1],4,4,4,7h[2:1],6,6,6,3,
{16}5,4,5,,
{8}3,2x/6x,7,38,2,16,7,38,1,
{4}1x>4[8:1],1x<6[8:1],1-5[8:1],1bx,
{16}8hx[4:4],,,,B2,B3,B4,B5,B6,,,,A2,A3,A4,A5,A6,,,,17,,,,18,,2,,18,,7,,1hx[4:4],,,,B7,B6,B5,B4,B3,,,,A7,A6,A5,A4,A3,,,,
{8}2x/8x,3x-7[8:1]b/7x-3[8:1]b,,,,,18,,
{16}2,1,2,1,2,,
{8}8,37,4,5x/6x,7,64,3,45,6,35,2,5x,5h[4:1],7x,7h[4:1],1x,1h[4:1],3x,3,5x-1[8:1],4,3,2,
{16}A8,A7,A6,A5,A1,A2,A3,A4,
{4}7x-1v4[4:2],,,,2>7[4:2],,
{8}8x,8x,8x,8x,8xp5[2:1],,,,,,,,34,3x/4x,,1x/2x,,8x/7x,,6x/5x,6h[4:7]/5p7[4:1],,,,,,7,,7>3[4:1],,,,,,
{4}2-6[8:1],A2f/8-4[8:1],A8f/3-7[8:1],A3f/5-1[8:1],A5f/2,
{8}8,8,,2b/7b,,56,56,,
{4}4x/3xp7[8:1],3/4q8[8:1],4/3>8[8:1],37,56,
{8}78,7/8-4[8:1],,5,,6,
{4}5x/6xq2[8:1],6/5p1[8:1],5/6<1[8:1],26,34,
{8}56,5-3[8:1]/6-8[8:1],,56,,12,1b/2b,,
{16}8x/4x,7,6,5,8x,1,2,3,4x/6x,,,,7b/8b,,,,1x/5x,2,3,4,1x,8,7,6,5x/3-1[8:1],,,,{32}4x,5x,6x,,,,,,{16}7bx-5[8:1],,,,{32}8x,1x,2x,,,,,,
{8}3x/4x,2bh[8:3]/5bh[8:3],,,,,37,3bpp6[8:7]/7bpp2[8:7],,37,,,,,,,,,
{4}3>7[4:1],7>3[4:1],{8}4,5,6,,2/7,,6/1-5[8:1],,8-4[8:1],,7-3[8:1],,6<2[4:1],,2<6[4:1],,5,4,3bx,3bx,1x/2x,,{16}8x/3x,7,6,5,8x,1,2,3,A8,A7,A6,A5,A4/8x,,,,1x/6x,2,3,4,1x,8,7,6,A1,A2,A3,A4,{4}A5/1xp5[4:1],5p1[4:1],1<5[4:1],5>1[4:1],1,5b,3b/7b,1b/8b,
{8}4x/7x,6,2x/5x,3,{16}6,5,7,5,6,5,7,,
{8}4x/8x,2,1x/6x,7,
{16}2,1,3,1,2,1,3,,
{8}4x/7x,6,2x/5x,3,
{16}6,5,7,5,6,5,7,,1x/8x,,2,1,2,1,2,,3x/8x,,2,1,2,1,2,,3x/4x,,,,2x/5x,6,7,8,5x,4,3,2,A5,A6,A7,A8,A1/5x,,,,4x/7x,3,2,1,4x,5,6,7,A4,A3,A2,A1,{8}A8/4x,4h[8:1],3,3h[8:1],2,2h[8:1],1,1h[8:1],{16}8x,7x,6x,5x,4x,3x,2x,1x,{32}4bx,5bx,6bx,7bx,8bx,1bx,2bx,3bx,{4}4bx,{4}8-3[8:1]/7-4[8:1],87,1-6[8:1]/2-5[8:1],12,8-4[8:1]/7-3[8:1],87,1-5[8:1]/2-6[8:1],12,1>5<8z4[4:7]/8<5>1s5[4:7],1b/8b,E
Re:MASTER
- MASTER譜面を修正しました。追加修正等ありましたらよろしくお願いします。 -- Sugar (2026-02-26 00:33:48)
最終更新:2026年04月12日 14:34