| アーティスト |
Shoichiro Hirata feat.Sana |
BASIC
ADVANCED
EXPERT
(155){8}4/5,,2,2h[4:1],,4,,3/4-1[4:1],,,,,,,1/8,,7/8,,7,7h[4:1],,5,,6/5,,4,4,,3x/6x,,1b/8b,,{4}2h[4:1],1,1/2,8,7h[4:1],8,8/7,1,2h[4:1],1,1/2,3,4-8[4:1]/5,,,2/6,7h[4:1],5,5/6,4,2h[4:1],4,3/4,5,7h[4:1],5,5/6,4/5,2-4[8:1]/7-5[8:1],,3/6,2/7,1hx[2:1]/8hx[2:1],,,,{16}E2/E8,,,E3/E7,,,B4,,{4}B5,,
{2}3h[1:3],5,5,4,4,2,{4}2,1,2/8,,{4}6h[1:2],,4,4,5,,8,8,1,2,3/5<3[4:3],,,,,1,2,3/4,7/8,7h[4:1]/8-4[4:1],,,2/1,2h[4:1]/1-5[4:1],,,7/8,7h[4:1]/8V24[2:1],,,,3/5,2h[4:1],4,7h[4:1],5,{8}1h[4:1],,8,,7/8,,6,6,,3/4,3/4,,1,1h[4:3],,3x,,5x,,7x,,1bx/8bx,,,
{8}7h[4:1]/8h[4:1],,,7x/8x,,,6h[4:1]/8h[4:1],,,6x/8x,,,5,,3/4,,2h[4:1]/1h[4:1],,,2x/1x,,,3h[4:1]/1h[4:1],,,3q5[2:1]/1x,,,,,,,7h[4:1],,,6x/8x,,,6h[4:1],,,5x/7x,,,
4/5,,3,,2h[4:1],,,3x/1x,,,3h[4:1],,,4x/2x,,,5/4,,2/7,,6,6,5,,3,3,4,,1/2,,7/8,,5/6,,3>4[4:3]/4,,,,,,,,,,1/8,,7,,6,,4/5,,1x/8x,1x/8x,,2x/4x,2x/4x,,7x/5x,7x/5x,,1x/8x,1x-5[8:1]/8x-4[8:1],,,,2bx/7bx,,
{4}7-4[8:1]/8h[4:1],,2-5[8:1]/1h[4:1],,7/8h[4:1],4,2/1h[4:1],5>6[4:3],{1},{4}5,4/6,2/8,7,7-4[8:1],4,3,2,2-5[8:1],5,6,7,{8}2h[4:1],,1,1,,7,7,8b/6b,,2,2,1b/3b,,3/4,3/4,,1-5[8:1],,6,,7,,8,,8-4[8:1],,3,,2,,1,,1s5[8:3],,,,,,6,,8,,1/2,,3/4,,5,5,,7h[4:1],,8,8,,1/6,1/6,,2/5,,3/4,,1/2,1/2,1bx-5[8:1]/2bx-6[8:1],,,,8bx-4[8:1]/7bx-3[8:1],,,,1b/2b,,4b/5b,,7b/8b,,4bqq1[8:11]/5bpp8[8:11],,,
{1},{4},,2/7,,3/4h[4:5],3-1[8:1],,,3,3-1[8:1],,,6/5h[4:5],6-8[8:1],,,6,6-8[8:1],,,{8}2/8,,7,7,8,,2,2,1,,4/5,4/5,3/6,,1x/8x,1x/8x,
{8},,,,,,,3hx[1:1],,,,,,,,4x<7[2:1],,,,,,,,7x/5x>2[2:1],,,,,,5,,6hx[4:5],,4,,5,5,,4,4,,5,,5/6,,4/5,,3h[4:1],,4,,3/4,,4/5,4/5,4bx/5bx,,2/7,2/7,2bx>4[8:1]/7bx<5[8:1],,,,,
{4}2x-5[8:1],6,7-4[8:1],3,1-4[8:1],5,8-5[8:1],4,2-4[8:1],8-6[8:1],1-5[8:1],,7-5[8:1],1-3[8:1],8,{8}1/7,1/7,,5/6,,3/4,3/4,,1/2,1/2,,3/4,,2/5,,5/7,5/7,5b-1[8:1]b/7b-5[8:1]b,,,,4b-8[8:1]b/2b-4[8:1]b,,,,5b/7b,,2b/4b,,1bh[4:1]/8bh[4:1],,,4b/5b,4bqq1[8:11]b/5bpp8[8:11]b,{1},,
{8}3h[4:1],,4,4,,1/2,,8-4[8:1],,,,1-5[8:1],,,,,7h[4:1],,8,8,,2,2,1,,3/4,,5/6,,4/7,4/7,,6h[4:1],,5,5,,7/8,,1-5[8:1],,,,8-4[8:1],,,,,3bhx[4:1]/6bhx[4:1],,,2bhx[4:1]/7bhx[4:1],,,1b>4[1:1]/8b<5[1:1],E
MASTER
(155){8}4/5,,3-5[8:1],3,5,6,,5h[4:1]/7h[4:1],,,,{16}1/8,,1/8h[16:3],,,7h[16:3],,,6,,{8}5/6,,6-4[8:1],6,4,3,,4/2,,{16}1,,1,,1,8,{8}2b-5[8:1]*-7[8:1],,2bx,,4/8,7,5,4-1[8:1]/6,,7-2[8:1],,3-6[8:1],,8-5[8:1],,4V26[4:1]b,,6-4[8:1]b,,,7,8,1,2-7[8:1]/4,,5-8[8:1],,1-4[8:1],,8,{24},,,8,7,6,4x/5x,,,1,2,3,{8}5x/4x,,1x/8x,2,4,3-8[8:1]/5,,7-4[8:1],,2-5[8:1],,6-1[8:1],,3V15[4:1]b,,5-3[8:1]b,,,7,8,1,2-5[8:1]/4,,6-1[8:1],,3-8[8:1],,7-4[8:1],,1V35[4:1]*V75[4:1],,1,,,4bh[4:1]/8bh[4:1],,,3,3/7,,,{32}5,4,5,4,{16}6x,,,6,,,6,,{4}5/7,,
{4}4h[8:1],4h[8:1]/E5,4h[8:1],4h[8:1]/E5,5h[8:1],5h[8:1]/E5,5h[8:1],5h[8:1]/E5,3>8[8:1],6<1[8:1],4p7[8:1],5q2[8:1],{8}3>8[8:1],,5,5pp4[8:3],,,,,{4}3h[8:1],3h[8:1]/E4,3h[8:1],3h[8:1]/E4,5h[8:1],5h[8:1]/E5,5h[8:1],5h[8:1]/E5,1>8[2:1],5s1[4:1],,,{8}2/6,4/7-4[8:1],3pp8[8:3],7>2[4:1],{4},,3x/7x,5/6,4/5,2/4,3/4,4/5,5/6,5/7,6hx[4:3]/5hx[4:1],,{48}A7,D8/E8/A8/B8,D1/E1/A1/B1,D2/E2/A2/B2,D3/E3/A3/B3,,,,,,,,{4},4hx[4:3]/5hx[4:1],,{48}A3,D3/E3/A2/B2,D2/E2/A1/B1,D1/E1/A8/B8,D8/E8/A7/B7,,,,,,,,{4},6,4/5,3/4,2/3,3/4,4/5,5/6,4/6,{8}4-8[8:1]/6>3[8:1],4/6,,,5-1[8:1]/3<6[8:1],5/3,,,4-8[8:1]/6>3[8:1],4/6,,,5-1[8:1]/3<6[8:1],5/3,,,
{8}4bhx[4:1]/8bhx[4:1],,,7h[4:1]/5h[4:1],,,5bhx[4:1]/1bhx[4:1],,,2h[4:1]/4h[4:1],,,{16}A8,A7,A6,A5,A4,A3,A2,,{8}5bhx[4:1]/1bhx[4:1],,,3h[4:1]/4h[4:1],,,4bhx[4:1]/8bhx[4:1],,,5h[4:1]/6h[4:1],,,{16}A1,A2,A3,A4,A5,A6,A7,,{8}2x>6[8:3]/6x,,,6p2[4:1],,,8x<3[8:3],,,3q8[4:1],,,2h[4:1],,,,1xV36[8:3]/8x,,,6V41[8:3],,,7hx[4:1],,,6h[4:1],,,{4}4/5,1/8,7<4[4:1]/2,4>1[4:1],1<6[4:1],6,2>5[4:1],5<8[4:1],8>3[4:1],3,7<4[4:1],4pp2[4:1],2<6[4:1],6,2>5[4:1],5qq7[4:1],8,8,{8}5/7,5hb[8:1]/7hb[8:1],,1/2,1bh[8:1]/2bh[8:1],,5/4,5bh[8:1]/4bh[8:1],,1/7,1b/7b,
{16}3,4,2,,1/8-3-6-1[8:3],,2/7,,8bx/3bxh[4:1],,{8},,2,8/2,,3/4>1[8:1],5,4/6-3[8:1],,6/2-6[8:1],,8-4[8:1]/2,,8/5p4>6[8:5],,7hb[8:5],{2},{8},5x/6x,4x/7x,8x/3hx[4:1],,4,2/5,1,6/8,5-3[8:1],4/6,5-7[8:1]/7,,3,,5/6,4,2z6[4:1]/5,2,6z2[4:1],,2,,6,,4q8[8:1]/5,3,2v5[8:1]/4,,1/2,8,4/6V82[4:1]b,,2-6[8:1]b/6,4,3V17[4:1]b,,7-3[8:1]b/3,5,6,,1<3[8:3]/8,2/7,1bx/6bhx[4:1],,,7,1/7,,6/5<8[8:1],4,5/3-6[8:1],,3/7-3[8:1],,1-5[8:1]/7,,1/4q5<3[8:5],,2hb[8:5],{2},{8},4x/3x,3x/4x,1x/6hx[4:1],,5,4/7,8,1/3,4-6[8:1],3/5,2/4-2[8:1],,6,,3/4,5,4/7V53[4:1],7,3V17[4:1],,7,,3,,5/6,5/6,2b/8b,,4/3,4/3,7b/1b,,4/6,3/5,2b/4b,,6b/7b,,2bqq5[8:3]/8hb[4:1],,,5x,,
{8}7hx[8:3],,,5h[8:3],E8/B8,,3h[8:3],,,1h[8:15],,,E4/B4,,2<6[2:1],,,,,,,D6,D5,D4,D3,D2,D1,D8,D7,D6,D5,D4,2hx[8:3],,,4h[8:3],E3/B3,,6h[8:3],,,8h[8:7],,,E7/B7,,,,,1,2,3,4/5,6,7,8,1/2,3,4/5,{16}6,5,7,,{8}8/4,1x/5x-1[8:1],,
{1}5bx<4[4:7]*<8[4:3]*<2[4:5]*,,,,{4}5,5/6,4,3/4,5,5/6,4,{8}3/4,3h[4:1]/4,,5,5,4/6V82[4:1]b,,2-6[8:1]b,4,3bV17[4:1]b,,7-3[8:1]b,5,6b,,8>6[8:3]/1,7/2,8bx/3bhx[4:1],,,2,8/2,,3/4,2,6/1-6[8:1],,1/5-2[8:1],,3v8[8:1]/5,,3/6q7>5[8:5],,1hb[8:5],{2},{8},5x/6x,6x/5x,8x/3hx[4:1],,4,2/5,1,8/6,5-2[8:1],4/6,5-8[8:1]/7,,3/5,,5/6,4,2V46[4:1]/5,2,6V82[4:1],,2,,6,,3/4,3/4,1b/7b,,6/5,6/5,8b/2b,,3/5,4/6,5b/7b,,1b/3b,,5b/4bw8[8:1],,,A7/A8f/A1/D1/D8,,
{8}2x/6x,3,5,4-1[8:1]/6,,7-2[8:1],,3-6[8:1],,8-5[8:1],,4V26[4:1]b,
,6-4[8:1]b,,,7,8,1,2-7[8:1]/4,,5-8[8:1],,1-4[8:1],,6-3[8:1],,2<5[4:1],,Cf,,,1x/8x,2,4,3-8[8:1]/5,,7-4[8:1],,2-5[8:1],,6-1[8:1],,3V15[4:1]b,,5-3[8:1]b,,,7,8,1,2-5[8:1]/4,,6-1[8:1],,3-8[8:1],,7-4[8:1],,1V35[4:1]*V75[4:1],,1x,,,4b/6b,3,5,2b/4b,,1/8,4b/5b<5[1:2]*<7[4:2]*<8[4:3]*<1[4:4]*<2[4:5]*<3[4:6]*<4[4:7],E
Re:MASTER
- MASTER譜面を追加しました。修正等ありましたらよろしくお願いします。 -- Sugar (2026-02-22 22:58:42)
- EXPERT譜面を追加しました。修正等ありましたらよろしくお願いします。 -- Sugar (2026-03-10 14:11:09)
最終更新:2026年03月10日 14:11