アットウィキロゴ

Resolution

アーティスト 曲:ANCHOR/歌:皇城 セツナ(CV:八巻 アンナ)

BPM BASIC ADVANCED EXPERT MASTER Re:MASTER
190 5 7+ 11 13+ -

EXPERT MASTER Re:MASTER
譜面制作者 鳩ホルダー りんご Full Set -

BASIC


ADVANCED


EXPERT


MASTER

(190)

{1}4-6-1-5[1:3]/6-4-1-5[1:3],,,,
{4}5/7h[4:3],5,5,5,3h[4:3]/5,5,5,5,
{4}5/6h[4:3],5,5,5,{8}3/7,3/7,2/8,2/8,{4}1-5[8:1],1b/2,
{4}3/4h[4:1],1,3h[4:3]/5,{8}2,2-6-4-8[8:5],{4},,2,1,
{8}1/2,,3,3h[4:1],,1,8,7,,3,4,5,2,3,4,5,
{8}5h[4:1]/6,,8,,4/6h[4:3],,7,7-3-5-1[8:5],{4},,7,8,
{8}7/8,,6,6h[8:3],,,8,1,2,3,,1/2,,7/8,,6,


{8}5h[2:3]/7,7,7,,B5/E5/E6,,,4,,2,2,,{2}B4/E4/E5,
{8}1h[2:3]/7,7,7,,B1/E1/E2,,,3,,4,4,,{2}B6/B7/E7,
{4}1/2,2/8,2/6,2/5,3/4,1/2,7/8,5/6,
{8}6,6,5,5,{16}7,4,7,4,8,3,8h[16:10],3h[16:9],{4},,,1b-5[8:1]/7b,


{8}1/6,8-3[8:1],,4/8,2-5[8:1],,2/6,7-4[8:1],,1/7,3b-6[8:1],,3/5,7b-2[8:1],,2/7,
{8}4>1[8:1],,4/6,8v5[8:1],,8<4[8:1]/3,,2,2h[8:3],,,8,7,6,3<7qq1[8:5]/5,,
{8}8,8h[8:5],,,,,,8x,1/2,3,4/5,6,7/8,1q5[4:1],,5V71[4:1],
{8},1>5[4:1],,5,,1,1,,{16}3,4,3,4,{4}2/5,1-5[8:1]/4<7[8:1],1b/4b-8[8:1],

{8}4/7,5-2[8:1],,1/5,3-8[8:1],,3/7,6-1[8:1],,4/6,2-7[8:1],,2/8,6-3[8:1],,2/6,
{8}1>4[8:1],,1/7,5v8[8:1],,2/5<1[8:1],,3,3h[8:3],,,5,6,7,2<6pp4[2:1]/8,,
{8}5,5h[8:5],,,,,,5x,3/4,2,1/8,7,5/6,4p8[4:1],,8V64[4:1],
{8},4>8[4:1],,8<4[4:1],,4,4,,1,1,2/8,2h[8:5]/8,{16}7x,6x,5x,4x,{8}3x-7[8:1],,

{8}3,,2,1,8-5[8:1]*<5[8:1],,8-3[8:1]*>3[8:1],,8,,4,5,5,4q1[8:1]/6p1[8:1],,4/6,
{8},,4/6,,7/8,7/8>3[8:1],,7<4[8:1]/8,,7-3[8:1]/8-2[8:1],,7-5[8:1]/8-4[8:1],,7b/8b,,,
{8}6,6,5/6,6,6/7,6,1/6,6,3,3,3/4,3,2/3,3,3/8-5[8:1],3,
{8}8-3[8:1],,8,,1/6,{16}7,8,7,8,7,8,{2}7h[2:1],{16}1,2,3,4,1,8,7,6,


{1}5<5V71V35V72V58-4[4:13],,,,
{8}E1,B8,B7,E7,E3,B3,B4,E5,E8,B7,B6,E6,E2,B2,B3,E4,
{8}A8,A7,A6,A5,A4,A3,A2,A1,{12}8x,7x,6x,4x,3x,2x,{2}Ch[4:1],

{2}2h[2:1]/3h[2:1],{32}E2,B1,B8,E8,{8},,,{2}6h[2:1]/7h[2:1],{32}E8,B8,B1,E2,{8},,,
{2}3h[2:1]/4h[2:1],{32}E3,B2,B1,E1,{8},,,{2}5h[2:1]/6h[2:1],{32}E7,B7,B8,E1,{8},2,2,
{4}3/4h[2:1],3-8[8:1],{32}E3,B2,B1,E1,{8},,,{4}5h[2:1]/6,6-1[8:1],{32}E7,B7,B8,E1,{8},,,
{4}4/6h[2:1],4-1[8:1],{32}E4,B3,B2,E2,{8},,,{4}5h[4:1],7h[4:1],1h[4:1],3,

{8}3/5h[2:1],,6-4qq2[4:1],,,7,7,,4/6h[2:1],,7-5qq3[4:1],,,8,8,,
{8}4h[2:1]/6,,3-5pp7[4:1],,,2,2,,3h[2:1]/5,,2-4pp6[4:1],,,1,1,,
{8}3/5h[2:1],,6qq4-2[4:1],,,7,7,,4/6h[2:1],,7qq5-3[4:1],,,8,8,,
{4}1-5[8:1]/2-5[8:1],1b/2b,1-5[8:1]/2-5[8:1],1b/2b,{8}6,6,7,7,{16}8,2,8,2,{4}8-4[8:1],


{8}2b/8b,,3/5,,5,6,4/7,,4,3,2/5,,5,6,4/7,,
{8}6h[4:1],,5h[8:1],7h[8:1],4h[8:1],8h[8:1],3h[8:1],1h[8:1],2,2,2,1/3,,4,6,6,
{8}3h[8:1],4,5h[8:1],4,2h[8:1],4,6h[8:1],4,3/5,2/6,1/7,8q4[8:1]*p4[8:1],,,,,
{16}3,4,3,4,2,,6,5,6,5,7,,3,4,3,4,{1}2q3<1[4:3],


{1}7h[1:3],,,,4h[1:1],3h[1:1],2h[2:3],{4}8h[2:1],,,1V52[4:1]b/7b,

{8}1/6x,8V47[4:1],,3x/8,1V62[4:1]b,,1/5x,7V28[4:1],,4x/7b,3V74[4:1]b,,3b/5x,7,,2,
{8}8<5[8:1],,2/8,4v1[8:1],,4>8[8:1]/6,,7,7h[4:1],,{16}2x,3x,4x,5x,6x,7x,8x,1x,{8}2x/7>3qq5[8:5],,4,4h[8:5],,,,,,4x,5/6,7,1/8,2,3/4,5p1[4:1],,1V75[4:1],
{8},5>1[4:1],,1<5[4:1],,5,5,,1,1,2/8,2h[8:5]/8,{16}7x,6x,5x,4x,{8}3x-7[8:1],,

{8}3,,2,1,8v5[8:1]*-6[8:1],,8v3[8:1]*-2[8:1],,8,,4,5,5,4p8[8:1]/6q2[8:1],,4/6,,
{8},4/6,,1/7,1/7-3[8:1],,1-5[8:1]/7,,1>3[8:1]/7q3[8:1],,1p5[8:1]/7<5[8:1],,1b/7b,,,
{8}6,6,5/6,6,6/7,6,1/6,6,3,3,3/4,3,2/3,3,3/8v5[8:1],3,
{8}8v3[8:1],,8,,4/7,{16}6,4,6,4,6,4,{4}5s1[4:1]*z1[4:1],,,3-6[8:1]/7-4[8:1],


{2}3b/7b,{16}8h[16:3],,,7h[16:3],,,{8}6,4,,3/5,,{16}7/8h[16:3],,,1h[16:3],,,{8}2,
{8}5,,4/6,,{16}1h[16:3]/2,,,8h[16:3],,,{8}7,4,4,3/5,3/5,2-4[8:1]/6-4[8:1],,,,
{8}3,3,2/5,,3/4,{16}2,1,,7,{8}8,6,6,4/7,,5/6,{16}7,8,,2,1,,
{8}3,3,2/5,,3/4,{16}2,1,,7,{8}8,1-5[8:1]/2-6[8:1],,1/2,,{16}2,1,2,1,3b/8b,,,,

{8}7,6,2/5,3,4/7,{16}6-1[8:1],5,,5,{8}6,2,3,4/7,6,2/5,{16}3-8[8:1],4,,4,3,,
{8}7,6,2/5,3,4/7,{16}6-1[8:1],5,,5,{8}6,4,4,3/5,3/5,2-8[8:1]/6-8[8:1],,,,
{8}6,7,3/8,2v5[4:1],1/6,{16}5,6,7,8,{8}1,3,2,1/6,7v4[4:1],3/8,{16}4,3,2,1,8,,
{8}6,7,3/8,2v5[4:1],1/6,{16}5,6,7,8,{8}1,4,4,8,8,{16}1,7,1,7,{4}1s5[8:1],

{1}1b>8[4:7]/8b,,E

Re:MASTER


追加しました。(2026/02/21 23:02:08)
名前:
コメント:

タグ:

+ タグ編集
  • タグ:
最終更新:2026年04月11日 18:42