アットウィキロゴ

華の集落、秋のお届け〈スタンダード〉

アーティスト Umiai

BPM BASIC ADVANCED EXPERT MASTER Re:MASTER
165 5 8 12 13+ -

EXPERT MASTER Re:MASTER
譜面制作者 サファ太 サファ太 -

BASIC


ADVANCED


EXPERT

(165){8}6h[8:3],,,5h[8:3],,,7h[8:3],,,5h[4:1],,6,6,,4/5,,2h[8:3],,,4h[4:1],,3,3,,1h[8:5]/2h[8:5],,,,,,1/2,,3h[8:3]/4,,,5h[4:1],,4,4/5,,
6h[8:3]/5,,,5h[4:1],,7,7/5,,4h[8:3]/6,,,5h[4:1],,3,3/5,,2h[8:5]/6b,,,,,8,8<5[4:1],,,,{4}1>4[4:1],,5<8[4:1],,4>1[4:1],,8,7h[4:1],5h[4:1],6,4/7,{8}5b/6b,,7/8,7/8,,2/1,2/1,,3,4,5,6h[4:1],,5,5,,7,8,1,2h[4:1],,1,1,,3,4,5,6h[4:1],,5,5,,7,7,5,5,6,6,4/6,,

{8}3/5,5/3p6[8:5],,,,,,,,,,,5,,5,,4/6,4/6h[8:7],,,5,,,,7>2[2:1],,,,,,,,2/4,2/4h[8:3],,,3h[2:1],,,,2h[2:1],,,,1,,,,7/8,7/8-4[8:5],,,,,,,{4}5,,3/4,2>5[2:1]/5,,,6,6<1[2:1],4,,3,3,2h[4:1]/4h[4:1],,3h[4:1]/4h[4:1],,5h[4:1]/4h[4:1],,5h[4:1]/6h[4:1],,{8}3/7,3/7-4[4:1],,,1,,1,,6/2,6/2-5[4:1],,,8,,8<1[1:1],,,,,,,,,,8b,,,,,,1/8,,

{8}2,2,4,3,7,6,4,4,7,7,5,6,2,3,4/7,,3/4,3/4,2/5,,6/5,6/5,7/4,,{16}2/5,,3,4,3,,2/5,,2/5,,,,3/8,,,,{8}3,3,4,2,8,7,4,4,6,6,5,7,1,2,3/4,,{16}2/5,,,,4/7,,6,5,6,,4,,4>6[2:1],,,,{8}5,,,,8,8,4/8,,7-4[8:1],7,3-8[8:1],3,5,5,1/6,,2-5[8:1],2,6-1[8:1],6,4,4,8/3,,7-4[8:1],7,3-8[8:1],3,5,5,1/6,,{16}3/8,,2,1,2,,3/8,,3/8,,,,6/1,,,,{8}2>5[8:1],2,6-1[8:1],6,2,2,3/8,,7<4[8:1],7,3-8[8:1],3,7,7,6/1,,3/4,3/4,,2/6,2-5[8:1]/6-1[8:1],,,,8b/4b,,6,6,{16}4,5,4,,3/6,,,,

{4}2h[1:1],,4h[2:1],,,3/4,3/4h[2:1],,2h[1:1],,1h[2:1],,,1/2,1/8,7/8,7h[4:1]/8h[4:3],,7h[4:1],,6,6,5/7,5/6,7h[4:1]/5h[4:3],,7h[4:1],,8,8,{8}1,1,2b/8b,,

{16}3/6,,3/6,,4,5,4,,6,5,6,,4/7,,3/8,,2,1,2,,7,8,7,,1/6,,2/5,,3/4,,,,4/7,,4/7,,6,5,6,,4/5,,4/5,,3,4,3,,2,1,2,,7,8,7,,5/6,,4/7,,3b/8b,,,,
5/6,,5/6,,7,8,7,,2,1,2,,3,4,3,,5/6,,5/6,,3,4,3,,2/5,,2/5,,1/6,,,,2,1,2,1,2,1,2,1,2,1,2,,3h[4:1]/8q1[4:3],,,,{1},

{8}2/8,2h[8:13]/8,,,,,1s5[4:3],,,,,,,,,,4/6,4/6h[8:13],,,,,5s1[4:3],,,,,,,,,,{4}1/7h[4:1],6h[4:1],5h[4:1],4h[4:1],3h[4:1],2h[4:1],1h[4:1],8h[4:1],7h[4:1],5h[4:1],3h[4:1],1h[4:1],8>3[8:3]*<5[8:3],,,,4h[2:3],,,,5h[2:1],,,1/8,2b/7b>2[2:1],,3-7[2:1],,6>3[2:1],,1,1,2-6[2:1]/8,,7>2[2:1],,3-7[2:1],,4,4,8h[8:1],8h[8:1],1h[8:1]/7h[8:1],2h[8:1]/6h[8:1],{8}1b/7h[2:1],,,,5,5,5/6,,

{8}7-4[8:1],7,3-8[8:1],3,6-1[8:1],6,4,,{16}2/5,,3,4,3,,6,5,6,,7,8,7,8,7,,2-4[8:1]/6,,2,,5-1[8:1],,5,,2-6[8:1],,2,,8-4[8:1],,8,,{8}1b,,1/2,3/8,4-8[8:1]/7<4[8:1],,,,1b,,2-6[8:1],2,4-8[8:1],4,3-7[8:1],3,5<8[8:1],5,1>4[8:1],1,5w1[8:1],5,,,{16}3b/7b,,3b/7b,,,,6,5,7,,3,4,2,,1,,1/7,,1/7,,2/8,,2/8,,1,8,1,8,2,7,2,7,{4}2-5[8:1],8,7-3[8:1]/8,8,2-6[8:1]/8,8,7b-3[8:1]/8b,1,2/4-8[8:1],3,7/5-1[8:1],6,2-6[8:1]/4,5-2[8:1]*-8[8:1],,{8}3b/7b,3b/7b,E

MASTER

(165)
{16}4h[8:1]/6h[8:1],,,,6,5,6,5h[16:5],,,,,7h[4:1],,,,
{8}6,5-8[8:1],,6,6,,5/7,,
{16}3h[8:1]/5h[8:1],,,,3,4,3,4h[16:5],,,2,,2V41[2:1],,,,
{8},,,,,8,1/7,,

{16}2h[8:1]/4h[8:1],,,,3,5,3,5h[16:3],,,,,4/6,,,,
{16}5h[8:1]/7h[8:1],,,,6,4,6,4h[16:3],,,,,3/5,,,,
{16}2h[8:1]/4h[8:1],,,,3,5,3,5-1[8:1],,,2,,2>1[2:1],,,,
{4}7h[2:1],,,3/8,

{8}1b/6b,2,3/8,{16}2,1,,1,2,,{8}3-7[8:1]/7,6,
5,,1/6,1/6V84[4:1],,2,2,,
3/5,,2/6,{16}7,8,,2,1,,{8}3/8,2/7,
{4}1h[8:1]/6h[12:1],{16}7,1,8,1,7,8,6,,2/5,,,,
{8}3/8<3[4:1],,2,2h[4:1],,,1/2,,
{8}7/1>6[4:1],,7,7h[4:1],,,7qq4[2:1]/8pp3[2:1],,
{4},,,{8}1/2,1/8,
{16}7/8,,6,5,6,,2,4,,1,8,,{4}5-1[8:1]/6,
4b/5bpp4[4:7],,,,
,,,,
{8}3,3h[8:11],{4},,,
{1}5h[1:1],
{8}4,4s8[8:13],{4},5,,
5,,5,,
{8}6h[4:1],,,6h[4:1],,,6,5,
{8}7h[4:1],,,7h[4:1],,,7,5,
{4}6bV84[2:1],5,4V62[2:1],3,
2V48[2:1],1,8V26[2:1],7,
6V84[2:1],5,4,3-6[4:1]*-8[4:1],
,,1h[8:3],,
{8}2/5,2/5,,{16}3,4,5,,4,5,6,,6,,
{8}4/7,4/7,,{16}6,5,4,,5,4,3,,3,,
{4}2/4,{32}5,4,5,,{16}3,4,3,4,2,4,2-6[8:1],3,1,,
{4}2/8h[8:5],,{8},1,2b/6b,,

{8}3-8[8:1],4,3/5,{16}6,6,{8}1,2,3/8,{16}6,5,
{8}6,5/7,4/6,{16}3,5,2,4,3,4,2,,1,1,
{8}8-4[8:1],7,6/8,{16}5,5,3,4,3,4,{8}2,1/5,2/6,{16}3,4,{8}5-2[8:1]*-8[8:1],4/6,{4},2/6,

{8}4-8[8:1],5,4/6,{16}7,7,1,,2,8,3,7,4,6,
{8}3>6[4:1],5,5,,4,5,6,7,
4h[4:1]/8h[4:1],,,{16}7,5,6,,3,3,4,,2/5,,
{8}3h[16:1]/6h[16:1],4h[16:1]/7h[16:1],3h[16:1]/6h[16:1],2h[16:1]/5h[16:1],1h[16:1]/6h[16:1],4h[16:1]/5h[16:1],3b/8b,,

{8}2-5[8:1],1,2/8,{16}7,7,{8}4,3,2/5,{16}7,8,
{8}7,2/6,1/7,{16}2,8,3,1,2,1,3,,4,4,
{8}5-1[8:1],6,5/7,{16}8,8,2,1,3,1,{8}3,4/8,3/7,{16}2,1,{8}8-3[8:1]*-5[8:1],1/7,{4},2/6,

{8}1-5[8:1],8,1/7,{16}6,6,4,5,3,5,4,5,3,5,
{8}2>7[4:1],8,7<2[4:1],,1,1,8,8,
1b/7b,3b/5b,,{16}3,4,2,,6,5,7,,1/7,,
2,6,3,5,4h[8:1],,7,7,,2,1,,{4}2/8,
5h[4:1]/6h[4:1],,5h[4:1]/6h[4:1],,
5>3[8:1]/6,7qq5[4:1],,,
3h[4:1]/4h[4:1],,3h[4:1]/4h[4:1],,
4<6[8:1]/3,2v4[4:1],,,
6V42[2:1],4V28[2:1],2,,
2V86[2:1],8V64[2:1],6,,
{8}6h[2:1],,,4,{4}4,2/4,
1/8,5/7,4/5,3/6,
{16}2/8,,2b/8b,,2,3,4,5,8,7,6,5,1,2,3,4,7,6,5,4,8,7,6,5,2,3,4,5,1,2,3,4,6,7,8,1,4,3,2,1,
7,6,1,2,6,5,2,3,
5,6,7,8,4,5,6,7,3,4,5,6,2,3,4,5,
6,5,7,4,6,5,7,4,
7,8,6,1,7,8,6,1,
4,3,5,2,4,3,5,2,
1,3,8,2,1,3,8,5,
7,6,7,5,6,4,5,2,
4,3,5,3,{8}5-1[8:1],4/6,
{4}5b/7h[4:3],,,1>8[4:12],
{1}8b,
,
,
{4},,{8}1/7,2/6,3/5,,
2h[4:1],,4,{16}4,3,4,3,{8}4,2/4,1,
7h[4:1]/8,,5,{16}5,6,5,6,{8}5,5/7,8,
2h[4:1]/1,,4,{16}5,5,3,3,4,4,{4}2<4[8:3],,3>5[8:3],,4,
{1}1b,
,
{32}2b/7h[4:6],3,{16}4h[16:3],,,{4},
{32}8,1,{16}2h[16:3],,,{4},
{32}4,5,{16}6h[16:3],,,{4},
{32}8,1,{16}2,,,{4}3/5,
6V83[2:1],4,3V16[2:1],5,
6V84[2:1],4,3,3,
{8}2/4,2/4,2/4,{16}3,4,{8}3,4/5,4/5,{16}6,5,
7,5,6,5,7,5,8,5,
7,7,5,5,6,6,7,7,

{8}8b<5[8:1],1,3/8,{16}2,2,
{8}4<7[8:1],1,2/4,3,
{16}2-8[8:1],,8,7,2-5[8:1],,6,5,2,,7,6,{8}1,1,
5<8[8:1]/2,2,2/5,{16}3,3,
{8}1-5[8:1],2-4[8:1],1<6[8:1],2,1,{16}2,2,4,,
7,5,6,6,3,4,2-6[8:1],5,1,6,{8}2b,,
4/8,{16}7,5,{8}6-8[8:1],4,6-4[8:1]/3,2,1/6,1,
1/5,{16}2,4,{8}3-1[8:1],5,3V51[4:1]/6,7,
3/8b,8b,,{16}2,1,3-8[8:1],,4,5,3,,7,,
6,6,1,1,8,8,2,2,5,3,6,4,{4}3b/7b,

{8}
1-6[8:1]/8,2,3-8[8:1]/1,3,
5-2[8:1]/3,6,7-4[8:1]/5,7,
1-6[8:1]/7,2,3-8[8:1]/1,3,
5-2[8:1]/3,6,7/5,7,
8-3[8:1]/1,7,6-1[8:1]/8,6,
4-7[8:1]/6,3,2-5[8:1]/4,2,
8-3[8:1]/2,7,6-1[8:1]/8,6,
4/6,3w7[8:1],2/4,3b,E

Re:MASTER


  • MASTER譜面をたけるんさんの代理で追加しました。修正等ありましたらよろしくお願いします。 -- Sugar (2026-02-19 01:51:20)
  • EXPERT譜面を追加しました。修正等ありましたらよろしくお願いします。 -- Sugar (2026-03-07 14:34:13)
名前:
コメント:

タグ:

+ タグ編集
  • タグ:
最終更新:2026年03月07日 14:34