アットウィキロゴ

華の集落、秋のお届け〈でらっくす〉

アーティスト Umiai

BPM BASIC ADVANCED EXPERT MASTER Re:MASTER
165 3 7+ 11+ 13+ -

EXPERT MASTER Re:MASTER
譜面制作者 翠楼屋 あまくちジンジャー -

BASIC


ADVANCED


EXPERT

(165){8}6h[8:3],,,4h[8:3],,,5h[8:3],,,3h[8:3],,,4,,3/5,,6h[8:3],,,4h[8:3],,,5,,2h[8:5]/6h[8:5],,,,,,2/6,,3h[8:3]/5,,,4h[8:3],,,3,,6h[8:3]/4,,,5h[8:3],,,6,,5h[8:3]/7,,,
6h[8:3],,,5,,4h[4:3]/7b,,,,,8,8>5[2:1],,5x,,,,,,2<5[2:1],,5x,,,,,,4x/8x,,7-3[4:1],,,,1-5[4:1],,,,8b,,7,7,,5/6,5/6,,3,3,4,2h[4:1],,5,2/5,,6,6,5,7h[4:1],,4,7/4,,8,8,1,1,7,7,5,5,6x,,4/5,4/5,,2x/6x,2x/6x,,

{8}3/5,3p6[8:5]/5,,,,,,,,,,,5,,5,,4/6,4/6h[8:7],,,5,,,,5>2[2:1],,,,,,,,2/4,2/4h[8:3],,,3h[2:1],,,,4h[2:1],,,,5h[2:1],,,,6,5-1[8:5]/6,,,,,,,8hx[1:1],,,,1,,1>4[2:1],,,,,,6,,6<1[2:1],,,,,,3,,3<6[2:1],,,,,,8,,8-4[8:3],,,,,,3x/5x,,,,2x/6x,2x-5[4:1]/6x,,,8,,8,,7x/3x,7x-4[4:1]/3x,,,1,,1>8[1:1],,{1},{4}Cf,,,1x/8x,

{8}2,2,4,4,3,5,1,1,7,7,5,5,6,4/7,4/7,,5/2,5/2,1,1,7,6,3,3,{16}2/5,,3,4,3,,2/5,,2/5,,,,4/6,,,,{8}3,3,4,2,8,7,4,4,6,6,5,7,1,2,4,4,2/5,,{16}3/6,,5,4,5,,6,,6<4[2:1],,,,{8}5x,,,,1,1,1/5,,2,2,4,3,5,6,1,2,7,7,5,6,4,3/7,3/7,,2,2,1,3,4/7,4/7,8,8,{16}3/8,,2,1,2,,3/8,,3/8,,,,1/7,,,,{8}6,6,3,2,8,7,1,1,5,5,6,7,1,2,8,8,3x/7x,3x/7x,,2/6,2-5[8:1]/6-1[8:1],,,,{1}4x/8bz4[2:1],

{4}3h[1:1],,4h[2:1],,,3/4,E5/E3,,6h[1:1],,5h[2:1],,,6/5,E5/E7,,2h[4:1]/4h[4:1],,2h[4:1]/4h[4:1],,3,3,B2/B4,,7h[4:1]/5h[4:1],,7h[4:1]/5h[4:1],,8,8,1,2b/5b,{16}3/6,,3/6,,4,5,4,,6,5,6,,4/7,,4/7,,3/8,,3/8,,2,1,2,,7,8,7,,1/6,,,,2/7,,2/7,,1,8,1,,2/7,,2/7,,1/6,,1/6,,7,8,7,,2,1,2,,3/4,,2/5,,1b/6b,,,,5/6,,5/6,,7,8,7,,1/6,,2/5,,
3,4,3,,4/5,,4/5,,6,5,6,,4/7,,4/7,,3/8,,,,2,1,2,,7,8,7,,2,3,2,,1p8[4:3]/4,,,,{1}Cf,

{8}1x/7x,1x/7hx[2:3],,,,8,,8,,6,,6,,5,,4,5x/3x,5x/3hx[4:5],,,,4,,4,,2,,1,,1/2,1qq5[4:3]/2h[4:1],,{4},,,3qq7[4:3],,,,5pp1[4:3],,,,2,{2}2h[4:1]/8hx[4:1],3h[4:1]/7h[4:1],4h[2:3],,5h[2:1],{4},1/8,2b/7b>2[2:1],,3<6[2:1],,7>2[2:1],,4,4,3h[1:1],,E4,E3,E2,E1,E2/E8,E3/E7,Chf[1:1],,,,8b,,{8}1/7,1/7,1/7,,

{8}2-4[8:1],2,5-1[8:1],5,2-6[8:1],2,7,7,{16}7/8,,6,5,6,,3,4,3,,2/5,,2/5,,,,{8}7-5[8:1],7,4-8[8:1],4,7-3[8:1],7,2,2,4,4,3,2,1w5[8:1],,,,3x/7x,,6v1[8:1],6,2>5[8:1],2,8x,8x,7<4[8:1],7,3v8[8:1],3,6>3[8:1],6,1x,1x,2x/8x,2x/8x,,3/7,3-8[8:1]/7-4[8:1],,,,{4}1bV36[2:1]/5bV72[2:1],,,,8x/4x,5h[8:1]/7h[8:1],4h[8:1]/5h[8:1],2h[8:1]/4h[8:1],1h[8:1]/8h[8:1],7h[8:1]/5h[8:1],4h[8:1]/3h[8:1],{8}2/5,3/6,{4}4h[8:1]/7h[8:1],1h[8:1]/6h[8:1],3h[8:1]/8h[8:1],4h[8:1]/6h[8:1],3h[8:1]/5h[8:1],4h[8:1]/7h[8:1],{8}2q6[8:1]/6,,8b,8b,E

MASTER

(165){8}6h[4:1],,E1,6h[4:1],,E2,6h[4:1],,E3,6h[4:1],,E4,6,E5,6h[4:1],,3h[4:1],,E1,3h[4:1],,E8,3h[4:1],,{4}C,,,{16}3,5,2,4,1h[4:3],,E3,B3,B4,B5,B6,E7,,,,,7h[1:1],,,,{32}E2,B2,B3,B4,,,,,{4},5,5h[1:1],{32}E1,B1,B2,B3,,,,,{4},4,4h[4:1],5qq2[4:1]*pp8[4:1],,,1-5[16:1],{32}1x/5<4[2:1],Cf,,,,,,,{4},,8-4[16:1],{32}8x/4>5[2:1],Cf,,,,,,,{4},,1-5[16:1],{32}1x/5<4[2:1],Cf,,,,,,,{4},,,{8}6h[8:1],{32}E2,B2,B3,E4,{16}6,5,7,4,6,5,7,,{4}8/4,{48}8x/3>6[8:3],B8,Cf,B4,,,,,,,,,{4},,,{48}1x/6<3[8:3],B1,Cf,B5,,,,,,,,,{4},,,{48}8x/3>6[8:3],B8,Cf,B4,,,,,,,,,{4},,,{16}3h[8:1],,5,5,4,,3,4,,6,5,,1w5[16:1]/6,,,,

{32}1qq3[4:5],Cf,,,,,,,{4},,,{1},{8}5,5h[8:3],,,{2}6h[2:1],7h[2:1],8h[2:1],{8}1,1h[8:3],,{16}2x,3x,{2}4hx[2:1],5h[2:1],4h[2:1],{4}E2,E1,E8,E7,E6,E5,E4,E3,{8}E2/5,,B2/6,5,E2,5,B2/6,,E2/5,5,B2/6,5,E2,5,B2/6,,E8/4,,B7/3,4,E8,4,B7/3,,E8/4,4,B7/3,4,E8,4,B7/3,,1/8,1/8,,{16}2,1,2,,4,3,4,3,4,,{8}2/8,1/7,,{16}7,8,7,,5,6,5,6,5,6,5h[4:1],,,,7,5,6,4,5,3,4,2,8-4[16:1],1,7,,{32}8b/6,Cf,,,,,,,{4},,3x/6x,

{48}2-5[8:1],E2,B1,B8,E8,,6,,,,,,{16}2,,6,6,4,,3,,2x/5x,,,,{48}7-4[8:1],E8,B8,B1,E2,,3,,,,,,{16}7,,3,3,5,,6,,2x/6x,,,,{48}1-4[8:1],E1,B8,B7,E7,,5,,,,,,{16}1,,5,5,3,,2,,1/7,,6,,4/5,,3,4,3,,2,,1/8,,,,3x/7x,,,,{48}6-1[8:1],E6,B5,B4,E4,,2,,,,,,{16}6,,2,2,8,,7,,6x/1x,,,,{48}3-8[8:1],E4,B4,B5,E6,,7,,,,,,{16}3,,7,7,1,,2,,3x/6x,,,,{48}8-5[8:1],E1,B1,B2,E3,,4,,,,,,{16}8,,4,4,6,,7,,8,,8,,1/7,,2/6,,3/5,,8/2,,7/3,,6/4,,3x/7x,,,,{48}2-5[8:1],E2,B1,B8,E8,,6,,,,,,{16}2,,7,7,1,,3,,4x/5x,,6,,{48}7-4[8:1],E8,B8,B1,E2,,3,,,,,,{16}7,,2,2,8,,7,,3x/6x,,2,,{48}1-4[8:1],E1,B8,B7,E7,,5,,,,,,{16}1,,5,5,3,,2,,1/7,,6,,4/5,,3,4,2,,1/6,,1/6,,,,2x/8x,,,,{48}7-2[8:1],E7,B6,B5,E5,,3,,,,,,{16}7,,4,4,{48}7,E7,B6,B5,E5,,{16}2,,1x/7x,,,,{48}2-7[8:1],E3,B3,B4,E5,,6,,,,,,{16}2,,5,5,{48}2,E3,B3,B4,E5,,{16}7,,8x/2x,,,,{8}1b>5[8:1],5b<1[8:1],,,{32}E2,E3,E4,E5,E6,E7,E8,E1,{16}Cf,,,,1,8,1,8,2/7,,4,5,2,7,3,6,{4}1b,

{4}2>5[2:1],,5qq2[4:3],,E7,E8,E1,,6<1[2:1],,1qq6[4:3],,E3,E4,E5,,3<6[2:1],,6qq3[4:3],,E8,E1,E2,{8}1,8,2/7,,,{16}4,5,4,,3,,1/2,,,,7/8,,,,5/6,,,,3/4,,,,1x/8x,,,,4/5h[8:1],,2b,,4,5,3,5,4,5,2,5,4,5,1,5,4,5,E1,5,4,5,B1,5,4,5,B2,,3/6,,,,5/4h[8:1],,7b,,
5,4,6,4,5,4,7,4,5,4,8,4,5,4,E1,4,5,4,B8,4,5,4,B7,,6/3,,,,{8}3h[4:1],E3,5h[4:1],E2,4h[4:1],E8,6h[4:1],E7,8h[4:1],E4,6h[4:1],E2,3h[4:1],E8,1h[4:1],E6,4h[4:1],E3,5h[4:1],E7,1h[4:1],E2,7p2[4:1],,,,,,{16}8,1,7,2,5,4,6,3,

{1}8b<2[2:3],,1>7[2:3],,{8}8qq5[8:5],8,1,1,2,2,3,3,4qq1[8:5],4,5,5,6,6,7,7,{16}8,1,7,2,6,3,5,4,6,3,7,2,8,3,6,4,5,,{48}3/6,E3,B2,B1,E1,,{8}5,4,{48}6/3,E7,B7,B8,E1,,{8}4,5,,{48}4x/5x,E5,B4,Cf,E7/B7/B8/E8/E1/B1/E2/B2/E3,,,,,,,,{4},,,,,,,{48}1x/8x,2x/7x,3x/6x,4x<4[48:57]/5x>5[48:57],,,,,,,,,,,,,,,,,,,,,{4},,,,,,2v4[8:1]/6v4[8:1],2<6[4:1]/6<2[4:1],,,7v5[8:1]/3v5[8:1],7>3[4:1]/3>7[4:1],,,{8}4,4,3/5,{16}2,4,1,,1,,2/8,,3,8,4,7,4,7,3,6,3,6,2,5,2,5,1b,,,,

{48}1-4[8:1],E1,B8,B7,E7,,5,,,,,,1,,,,,,5,,,,,,2-5[8:1],E2,B1,B8,E8,,6,,,,,,2,,,,,,6,,,,,,3-6[8:1],E3,B2,B1,E1,,7,,,,,,3,,,,,,7,,,,,,{8}8,1,2/6b,,{48}8-5[8:1],E1,B1,B2,E3,,4,,,,,,8,,,,,,4,,,,,,7-4[8:1],E8,B8,B1,E2,,3,,,,,,7,,,,,,3,,,,,,6-3[8:1],E7,B7,B8,E1,,2,,,,,,6,,,,,,2,,,,,,{8}1,8,7/3b,,{48}1-4[8:1],E1,B8,B7,E7,,5,,,,,,1,,,,,,5,,,,,,2-5[8:1],E2,B1,B8,E8,,6,,,,,,2,,,,,,6,,,,,,8-5[8:1],E1,B1,B2,E3,,4,,,,,,8,,,,,,4,,,,,,7-4[8:1]/3x,E8,B8,B1,E2,,3x,,,,,,7/3x,E3,B2,B1,E1,,,,,,,,{16}2x/6x,,2x/6x,,,,3,4,3,,2,,1/5,,,,5/7,,6,,4/2,,3,,3,5,4,6,2b,,,,{48}1-4[8:1]/5,E1,B8,B7,E7,,5,,,,,,1/5,,,,,,5,,,,,,2-5[8:1]/6,E2,B1,B8,E8,,6,,,,,,2/6,,,,,,6,,,,,,8-5[8:1]/4,E1,B1,B2,E3,,4,,,,,,8/4,,,,,,4,,,,,,7-4[8:1]/3,E8,B8,B1,E2,,3,,,,,,7/3,,,,,,3,,,,,,1-4[8:1]/5,E1,B8,B7,E7,,5,,,,,,1/5,,,,,,5,,,,,,3-6[8:1]/7,E3,B2,B1,E1,7,,,,,,,3/7,,,,,,7,,,,,,6-3[8:1]/2,E7,B7,B8,E1,2,,,,,,,6/2,,,,,,2,,,,,,5<5[8:3]*>5[8:3],B5,C,B1,E

Re:MASTER


  • EXPERT譜面を追加しました。修正等ありましたらよろしくお願いします。 -- Sugar (2026-03-16 14:03:24)
  • MASTER譜面を追加しました。修正等ありましたらよろしくお願いします。 -- Sugar (2026-03-16 23:11:20)
名前:
コメント:

タグ:

+ タグ編集
  • タグ:
最終更新:2026年04月09日 20:13