アットウィキロゴ

恋の氷結おてんば湯けむりチルノ温泉

アーティスト uno×夕野ヨシミ feat. miko

BPM BASIC ADVANCED EXPERT MASTER Re:MASTER
188 3 7 10+ 13 -

EXPERT MASTER Re:MASTER
譜面制作者 ロシェ@ペンギン Luxizhel -

BASIC


ADVANCED


EXPERT


MASTER

(99.9){1},
{2}4h[2:1],{8}6,5,4,,3,4,5,,5,4,3h[4:1],,4,5,6h[4:1],,(98)5,4,(81)3>5[1:1],(71)4,(88.5){2}5,,,(188){2},
{4}4h[8:1]/6h[8:1],4h[8:1]/6h[8:1],3h[8:1]/5h[8:1],3h[8:1]/5h[8:1],4h[8:1]/6h[8:1],4h[8:1]/6h[8:1],{16}3,5,3,5,{4}1b,2h[8:1]/4h[8:1],2h[8:1]/4h[8:1],4h[8:1]/5h[8:1],4h[8:1]/5h[8:1],5h[8:1]/7h[8:1],6>3[8:1],2<7[8:1],,5h[8:1]/6h[8:1],5h[8:1]/6h[8:1],3h[8:1]/4h[8:1],3h[8:1]/4h[8:1],2-7[8:1],,5-8[8:1]/1v4[8:1],,{8}7,7,5,6,2,2,4,3,{2}4h[4:1]/5h[4:1],E4/A6f/E6/E7/B6,
{4}2-5[8:1]/8h[8:1],8h[8:1],6-1[8:1]/8h[8:1],8h[8:1],3qq5[2:1]/7h[8:1],7h[8:1],7h[8:1],7,4h[8:1]/8-2[8:1],4h[8:1],3-8[8:1]/4h[8:1],4h[8:1],1V73[8:3]/4h[8:1],4h[8:1],4h[8:1],4,Cf/B1/B3/B5/B7,,A3/A6/E4/E6/B4/B5,A2/A7/E2/E8/B1/B8,3-6[8:1],3,1v4[8:1]/8-5[8:1],,{8}7,7,68,,2,2,{4}13,5bx/7bx,2bx/4bx,3bx-8[8:1]/6bx-1[8:1],3bx/6bx,
{8}7,6,5,4,6x,5,4x,3,2,3,5,6,3x,4x,6x,7,4x,3,2x,1,8x,7,2xh[1:1]/6x,,E8f,E1f,E2f,E3f,E4f,E6f,E7f,,2,3,4,5,7x,6,5x,4,2,3,5,6,4x,3x,7x,6,3x,2,1x,8,7x,6,2xh[2:1]/5x,,E8f,E1f,E2f,E3f,C/E4f/E6/E7,,,,
18,18,{16}7,8,7,,16,,25,,{4}34,4-1[8:1]/2-5[8:1],,8-5[8:1]/6-1[8:1],,3h[4:1],{16}1,2,1,2,1,,38,,{4}3x/8x,6h[4:1],{16}8,7,8,7,{8}8,16,1x/6x,,38,7,16,2,35,6,47,,6-1[8:1]/5-3[8:1],,56,,{16}2xqq5[8:3],2x,2x,2x,{8}2x,,6,6,7,7,5-1[8:1],8,5,,2,2,4-8[8:1],3,4,,1b/7b,,38,38,{16}2,1,2,,38,,47,,{4}56,7-4[8:1]/5-8[8:1],,3-8[8:1]/1-4[8:1],,6h[4:1],{16}8,7,8,7,8,,12,,{4}1x/2x,3h[4:1],{16}1,2,1,2,{8}1,78,7x/8x,,16,2,37,6,{4}4-8[8:1]/3-8[8:1],34,6-1[8:1]/5-1[8:1],56,{16}2xqq5[8:3],2x,2x,2x,{8}2x,,6,6,47,8,{16}2,1,2,1,{8}3x/8x,,24,1,57,8,{16}2,1,2,1,{4}3bx/8bx,
5/7h[4:1],5,4h[4:1]/6,6,3/5h[4:1],3,24,{8}24,1,1,7,7,2,2,8,8,57,E4,E2,E8,E6,43,,17,,
2b/6b,,5<8[8:1],5,2-6[8:1],2,1-5[8:1],1,5-7-4b[4:1],,8,8,,15,5-7[8:1]/1-5[8:1],,15,,8,8,5,6,3>8[8:1],3,5q2[8:1],5,4p7[8:1],4,6<1[8:1],6,2,,3b/7b,,8-4[8:1],8,5-1[8:1],5,6x<2[8:1],6,2xV48b[4:1],,5,5,,47,7<4[8:1]/4>1[8:1],,47,,8,8,17,45,{4}5-2[8:1]/4>2[8:1],5<7[8:1]/4-7[8:1],5-2[8:1]/4>2[8:1],5<7[8:1]/4-7[8:1],45,2bx/8bx,{8}2<7[8:1],2,6>3[8:1],6,2V48b[4:1],2,8-6b[8:1],,5,5-1[8:1],,45,3V57[4:1],,7V13[4:1],,3,,7,7,6<1[8:1],6,4bp7[8:1],4,5bq2[8:1],5,3b>8[8:1],3,7,,1b/6b,,4,3,12,8,7<5-1[4:1],7,1b>3-7[4:1],,7b,,8,8,8w4[8:1],,8,,26,4,37,5,6pp5b[2:1]/2pp1b[2:1],8,{4},,,6-3[8:1]/2-7[8:1],
{16}2b/6b,Cf/B4/B8,{4},,,{8},3,4,5,6,5,4,,3,3,4,5,4,5,6,,5,5,4,3,6,5,4,,6,6,5,4,3,4,5,,6,6,5,4,5,4,3,,4,4,5,6,7,8,1,,2,{4}2>7[4:3],5s1[2:1],,,{1},,,,,,,
E

Re:MASTER


序盤のBPM変化の所が間違ってる可能性があるのでわかる方いたら修正お願いします。 -- paru (2026-02-25 18:19:24)
名前:
コメント:

タグ:

+ タグ編集
  • タグ:
最終更新:2026年02月25日 18:19