アットウィキロゴ

イタ電はやめて! ぼくらのスカーレット・コール

アーティスト 七条レタスグループ

BPM BASIC ADVANCED EXPERT MASTER Re:MASTER
112 1 5 9 12+ -

EXPERT MASTER Re:MASTER
譜面制作者 サファ太 はっぴー -

BASIC


ADVANCED


EXPERT

(112)
{1}3h[4:15]/5^8[8:3],
{1}1-4[8:3],
{4},4,,4,
{4},4,,4,
{1}4bx^1[8:3]/6h[1:1],
{2}8-5[8:3],{4},7x,
{4}7x,B5/E7,,B4/E3,
{4},B5/E7,1x/8x,1bx/8bx,

{4}2,34,{8}4,3,{4}2h[4:1],
{4}3,34,{8}2,3,{4}4/6x,
{4}7,56,{8}5,6,{4}7h[4:1],
{4}6,56,{8}56,7x,{4}56,
{4}8bx,{8}8,7,{4}46,34,
{8}4,3,{4}2h[4:1],1,12,
{4}7xh[4:1],{8}8,7,{4}6,57,
{8}6,7,{4}8h[4:1],1,2bx/7^2[4:1],

{4},3-7[4:1],,8bx,
{4}6,{8}5,5,{4}46,3^8[4:1]/5,
{4},7-3[4:1],,2,
{4}4,{8}5,5,{4}46,C,

{4}8h[4:1],1h[4:1],2h[4:1],4bx,
{4}1h[4:1],8h[4:1],7h[4:1],5,
{4}34,34,{8}2,2,{4}1,
{4}12,{8}3,3,{4}4,34,

{2}1xh[4:1]/2xh[4:1],{4}23,3z7[2:1]/4,
{2},{4},7z3[2:1]/8,
{2},{4},3s7[2:1]/4,
{2},{4},8,

{4}1b/8b,24,57,4-1[2:1]/5-8[2:1],
{2},{4},27,
{8}3,3,4,4,{4}2h[4:1],1,
{8}7,7,8,8,{4}6h[4:1],5b,

{2}4/5-1[8:1],{16}2h[16:3],,,3h[16:3],,,{8}4,
{2}4-8[8:1],{16}7h[16:3],,,6h[16:3],,,{8}5,
{2}5-1[8:1],{16}2h[16:3],,,3h[16:3],,,{8}4,
{4}4,45,{8}56,56,{4}4b/7b,
{4}E7,C,E3,1h[4:1],
{8}8,8,8,8,1,1,{4}1p8<2[1:1],
{1},
{2}1xh[2:1],{4},3-5[8:1]/7-1[8:1],

{4},2-8[8:1]/6-4[8:1],,3-5[8:1]/7-1[8:1],
{4},26,4b/5b,2b/8b,
{8}7,7,5,6,4,3,5,6,
{4}1,{8}3,2,45,36,{4}2b-5[8:1]/7b-1[8:1],
{4},2-8[8:1]/7-4[8:1],,2-5[8:1]/7-1[8:1],
{4},27,3b/5b,1b/8b,
{8}2,2,4,3,5bx,6,1,2,
{8}8,8,1,1,2b/8b,3b/7b,{4}4b/6b,

{4}7h[4:1],8,{8}1,2,{4}38,
{4}2h[4:1],4h[4:1],5,1b/7b,
{4}2h[4:1],1,{8}8,7,{4}16,
{4}7h[4:1],5h[4:1],{8}6b,4b/7b,{4}4b/7b,
{4}2h[4:1],1,{8}8,7,{4}16,
{4}7h[4:1],5h[4:1],4,2b/8b,
{4}7h[4:1],8,{8}1,2,{4}38,
{4}2h[4:1],4h[4:1],{8}3b,2b/5b,{4}2b/5b,

{2}1^4[4:1],6^1[4:1],
{4}2h[1:1],1,3,1,
{2}8^5[4:1],3^8[4:1],
{4}7h[4:1],8,{8}38,1x/2x,{4}1x/2x,
{2}4^1[4:1],7^4[4:1],
{4}3h[1:1],4,2,4,
{2}5^8[4:1],2^5[4:1],
{4}6h[4:1],5,{8}7bx/8bx,1bx/6bx,{4}2bxh[8:19]/5bxh[8:5],

{1},
{4},{8},{16},Ch[16:9],{2},
{1},
E

MASTER

(112)
{4}E5/B5/B4,,B5/B4/E5/A5/D5/A4,,B5/B4/E5/A5/D5/A4,,B5/B4/E5/A5/D5/A4,6h[4:1],
{8}B5/B4/E5/A5/D5/A4,,3h[4:1],,B5/B4/E5/A5/D5/A4,6xh[8:7],,,
{8}B5/B4/E5/A5/D5/A4,,,,B5/B4/E5/A5/D5/A4,,3,,
{8}3/B5/B4/E5/A5/D5/A4,,6,,6/B5/B4/E5/A5/D5/A4,,3,,
{8}3/B5/B4/E5/A5/D5/A4,,6,,B5/B4/E5/A5/D5/A4/6-8[8:1],,6,,
{8}B5/B4/E5/A5/D5f/A4,,,,B5/B4/E5/A5/D5/A4,8b,,1,1/B5/B4/E5/A5/D5/A4,1,
{16}7,7,8,,2,2,
{8}1,8b-6[8:1],,
{8}B5/B4/E5/A5/D5/A4,,1-3[8:1],,B5/B4/E5/A5/D5/A4,,7,,
{8}B5/B4/E5/A5/D5/A4,,2,2,B5/B4/E5/A5/D5/A4,,3,,
{8}B5/B4/E5/A5/D5/A4,,8,8,B5/B4/E5/A5/D5/A4,,6,,
{8}B5/B4/E5/A5/D5/A4,,1,1,B5/B4/E5/A5/D5/A4,,3>1[8:1],,
{8}3/B5/B4/E5/A5/D5f/A4,,,,B5/B4/E5/A5/D5/A4,,6,6,
{8}B5/B4/E5/A5/D5/A4,,3,3,B5/B4/E5/A5/D5/A4,,8bxh[4:2],,
{8}B5/B4/E5/A5/D5/A4,,6,,B5/B4/E5/A5/D5/A4,,3,3,
{8}B5/B4/E5/A5/D5/A4,,6,6,B5/B4/E5/A5/D5/A4,,1x,,
{8}8x/B5/B4/E5/A5/D5/A4,,6<8[8:1],,6/B5/B4/E5/A5/D5/A4,,3h[4:1],,
{8}B5/B4/E5/A5/D5/A4,,6,7,7bx/B5/B4/E5/A5/D5/A4,,8-3[8:1],8,
{8}B5/B4/E5/A5/D5/A4,,1-6[8:1],1,B5/B4/E5/A5/D5/A4,,8-3[8:1],8,
{8}B5/B4/E5/A5/D5/A4,,2,1,1b/B5/B4/E5/A5/D5/A4,,8h[4:1],,
{8}B5/B4/E5/A5/D5/A4,,1bxh[4:1],,B5/B4/E5/A5/D5/A4,,7,7,
{8}8/B5/B4/E5/A5/D5/A4,8,1,1,2x/B5/B4/E5/A5/D5/A4,,2,2,
{8}1/B5/B4/E5/A5/D5/A4,1,8,8,7/B5/B4/E5/A5/D5/A4,7,8,8,
{8}1/B5/B4/E5/A5/D5/A4,1,2,2,1/B5/B4/E5/A5/D5/A4,1,8,8,
{8}7/B5/B4/E5/A5/D5/A4,7,7bxh[4:2],,B5/B4/E5/A5/D5/A4,,6,,
{8}B5/B4/E5/A5/D5/A4,,{16}3,3,,,B5/B4/E5/A5/D5/A4,2bxh[4:2],,,7,,6,,
{8}B5/B4/E5/A5/D5/A4,,2,3,B5/B4/E5/A5/D5/A4,,6,7bxh[4:2],
{8}B5/B4/E5/A5/D5/A4,,{16}3,3,,,B5/B4/E5/A5/D5/A4,,,,6,,,,
{8}B5/B4/E5/A5/D5/A4/6<8[8:1],,6/1>3[8:1],,1/B5/B4/E5/A5/D5/A4,,3,,
{8}B4/B5/E5/A4/D5/A5/3>1[8:1],,3/8<6[8:1],,8/B4/B5/E5/A4/D5/A5,,6,,
{8}B5/B4/E5/A5/D5/A4/6<8[8:1],,6/1>3[8:1],,1/B5/B4/E5/A5/D5/A4,,7V16-2[8:5],,
{8}B5/B4/E5/A5/D5/A4,,
{16}3x,3x,3x,3x,3x,,,,1h[4:1],,,,
{8}B5/B4/E5/A5/D5/A4,,{16}8/7,,,6,
{8}B5/B4/E5/A5/D5/A4,2,2,1,1/B5/B4/E5/A5/D5/A4,8/2,8/2,3,
{8}B5/B4/E5/A5/D5/A4,,8h[4:1],,{8}B5/B4/E5/A5/D5/A4,,{16}1/2,,,3,
{8}B5/B4/E5/A5/D5/A4,7,7,8,8/B5/B4/E5/A5/D5/A4,1/7,7/1,{16}2,5,
{8}B3/B4/E4/A3/D4f/A4,,1/B6/B5/E6/A6/D6/A5,1,
{8}8/B3/B4/E4/A3/D4/A4,8,2/B6/B5/E6/A6/D6/A5,2,
{8}7/B3/B4/E4/A3/D4/A4,7,D6,D7,D8,D1,D2,D3,D4,D5,
{16}3,3,3,3,1,1,1,1,7,7,7,7,5s1[4:2],5,5,5,
{8}2xh[4:2],,,,,,5/3>6[4:1],,6<3[4:1],,
{8}B5/B4/E5/A5/D5/A4,,6,,B5/B4/E5/A5/D5/A4/6<3[4:1],,3>6[4:1],,
{8}B5/B4/E5/A5/D5/A4,,3bxh[8:1],,1bxh[8:1]/B5/B4/E5/A5/D5f/A4,,{16}7,7,3,3,
{8}B5/B4/E5/A5/D5/A4,1/7,{16}2,2,8,8,
{8}B5/B4/E5/A5/D5/A4,2/6,{16}7,7,1,1,
{8}B5/B4/E5/A5/D5/A4,1/3,8/1,8/6,B5/B4/E5/A5/D5f/A4/6x<3[4:1],,3x>6[4:1],,
{8}B5/B4/E5/A5/D5/A4,,3,,B5/B4/E5/A5/D5/A4/3>6[4:1],,6<3[4:1],,
{8}B5/B4/E5/A5/D5/A4,,6bxh[8:1],,8bxh[8:1]/B5/B4/E5/A5/D5/A4,,1h[8:1],{16}6,6,
{8}B5/B4/E5/A5/D5/A4,{16}7,7,1,1,6,6,B5/B4/E5/A5/D5/A4,3,3,,8h[8:1],,2,2,
{8}B5/B4/E5/A5/D5/A4,{16}3,3,3/1,,8/6,,
{8}B5/B4/E5/A5/D5f/A4,,1>3[8:1],,B5/B4/E5/A5/D5/A4/1<7[8:1],,1-3[8:1],,
{8}1/B5/B4/E5/A5/D5/A4,,8<6[8:1],,B4/B5/E5/A4/D5/A5/8>2[8:1],,8-6[8:1],,
{8}8b/B4/B5/E5/A4/D5/A5,,1>3[8:1],,B5/B4/E5/A5/D5/A4/1<7[8:1],,1-3[8:1],,
{8}1/B5/B4/E5/A5/D5/A4,,8<6[8:1],,B4/B5/E5/A4/D5/A5/8>2[8:1],,3bx/8b-6[8:1],3bx,
{8}8b/B4/B5/E5/A4/D5/A5,,1>3[8:1],,B5/B4/E5/A5/D5/A4/1<7[8:1],,1-3[8:1],,
{8}B5/B4/E5/A5/D5/A4/1-7[8:1],,1>3[8:1],,B5/B4/E5/A5/D5/A4/1<7[8:1],,1-3[8:1],,
{8}1b/B5/B4/E5/A5/D5/A4,,8<6[8:1],,B4/B5/E5/A4/D5/A5/8>2[8:1],,8-6[8:1],,
{8}B4/B5/E5/A4/D5/A5/8-2[8:1],,8<6[8:1],,B4/B5/E5/A4/D5/A5/8>2[8:1],,3bx/8b-6[8:1],3bx,
{8}8b/B4/B5/E5/A4/D5/A5,,3,3,2/B4/B5/E5/A4/D5/A5,2,6,{16}7,7h[16:3],
{8}B4/B5/E5/A4/D5/A5,3,2,2,B4/B5/E5/A4/D5/A5/3-7[8:1],3,6/3-1[8:1],,
{8}3/B4/B5/E5/A4/D5/A5,,6,6,7/B5/B4/E5/A5/D5/A4,7,3,{16}2,2h[16:3],
{8}B5/B4/E5/A5/D5/A4,6,7,8,1/B5/B4/E5/A5/D5/A4,2,,
{8}B3/B4/E4/A3/D4/A4,B6/B5/E6/A6/D6/A5,,7,7,
{8}8/B5/B4/E5/A5/D5/A4,8,3,{16}2,2h[16:3],
{8}B5/B4/E5/A5/D5/A4,6,7,7,B5/B4/E5/A5/D5/A4/6-2[8:1],6,3/6-8[8:1],,
{8}6/B5/B4/E5/A5/D5/A4,,3,3,2/B5/B4/E5/A5/D5/A4,2,6,{16}7,7h[16:3],
{8}B5/B4/E5/A5/D5/A4,3,2,2,3/B5/B4/E5/A5/D5/A4,3,
{8}1b/3b,8b/6b,1bh[8:5]/8bh[8:5],,,,,,,
(168)
{8}A2,A3,A4,A5,A6,A7,A8,,,
{16},2xh[2:1],,,,,,,,8x,,,8x,,,
{8}1x/7x,7x/1x,8x/2x,8x/2x,
E

Re:MASTER


名前:
コメント:

タグ:

+ タグ編集
  • タグ:
最終更新:2026年06月19日 21:46