アットウィキロゴ

むしみこうにゃーのハッピッピー

アーティスト ARM×狐夢想 feat. miko×山本椛

BPM BASIC ADVANCED EXPERT MASTER Re:MASTER
225 3 7+ 11 13+ -

EXPERT MASTER Re:MASTER
譜面制作者 サファ太 じゃこレモン -

BASIC


ADVANCED


EXPERT


MASTER

(225)
{1},
{1},
{1},
{16},,,,,,,,,,,,A1/A8,B1/B8,C1f,B4/B5,
{1}A4/A5,
{1},
{1},
{8},5h[2:1],,,,6h[2:1],,,
{8},7h[8:5],,,,,8h[32:17],,
{32},,,,,,,,,1h[16:13],,,,,,,,,,,,,,,,,,,,,,,
{32},,,2h[32:41],,,,,,,,,,,,,,,,,,,,,,,,,,,,,
{32},,,,,,,,,,,,3xv8[8:9],4x,5xv8[16:17],,,,,,,,,,,,,,,,,,
{1},
{16},1/8,,,2/7,,,3/6,,,4/5,,,,,,
{1}3V14>3[1:1]/6V85<6[1:1],
{16},,,,,,,,,,,,6,5,6,,
{16}4x/7x,,,,3,4,3,,2x/5x,,,,6,5,6,,
{8}4x/7x,,1h[4:1],,E1,E8,E7,,

{2}2>6[2:1],8,
{2}7<3[2:1],1,
{4}12,4v7[4:1]*v1[4:1],{2},
{4}26,3-1[8:1]/4-6[8:1],{2}34,
{2}7<3[2:1],1,
{2}2>6[2:1],8,
{2}1-6[8:1]*-4[8:1],5x-8[8:1]*-2[8:1],
{4}37,5-3[8:1]/6-8[8:1],{2}56,

{4}2>6[2:1],1,{2}8,
{4}7<3[2:1],8,{2}1,
{8}2,2,5,5,4v7[8:1]*v1[8:1],4,{4},
{4}26,3-1[8:1]/4-6[8:1],{2}34,
{2}7/8-5[8:1],{16}6h[16:3],,,8h[16:3],,,{8}1,
{8},2,{4}2,34,34,
{2}1-4[8:1]/2,{16}3h[16:3],,,1h[16:3],,,{8}8,
{8},7,{4}7,56,56,

{4}3bh[1:1]/4b,2,1,8,
{4}6bh[1:1],7,8,1,
{4}3bh[2:1],1,6bh[2:1],8,
{4}2b,3b/7b,4b>1[4:5]/8b<5[4:5],48,
{1},
{2},{4}1-5[8:1],1b,

{4}6<1[8:1],56,3>8[8:1],34,
{4}6<1[8:1],56,3>8[8:1],34,
{4}6<1[8:1],56,3>8[8:1],34,
{4}6-1[8:1],2-5[8:1]/6,2/8<5[8:1],4b/8b,
{4}3x>8[8:1],34,6<1[8:1],56,
{16}4,3,2,1,8,7,6,5,{8}4x,1xw5[8:1],{4},
{8},3x/7x,{4}3x/7x,12,38,
{8}47,{16}6,5,{8}6,7,{4}7,45,

{4}2hx[2:1],4,7h[2:1],5,
{4}2h[2:1],4,7h[2:1],5,
{4}3h[2:1],1,6h[2:1],8,
{4}3h[2:1],1,6,45,
{4}E2f,E4f,E6f,E8f,
{4}E1f,E3f,E5f,E7f,
{2}5h[8:3]/7h[8:3],{8}4h[4:1]/5h[4:1],,,2bh[2:1]/4bh[2:1],
{2},{8}3,2,1,8,

{8}7hx[8:1],8,7h[8:1],8,6h[8:1],5,6h[8:1],5,
{1}5xq3[4:1]/6x<2[4:1],
{8}2hx[8:1],1,2h[8:1],1,3h[8:1],4,3h[8:1],4,
{1}3x>7[4:1]/4xp6[4:1],
{2}5-1[8:1]/6-8[8:1],3-1[8:1]/4-8[8:1],
{2}6-2[8:1]/5-1[8:1],4-8[8:1]/3-7[8:1],
{8}1b,8,2b,7,3b/6,5pp8[8:5]/4bqq1b[8:5],,4b/5,
{1},
{2}B2/B3,B6/B7,
{4}B3/B4,B5/B6,{2}E1f/E2/E8,

{2}34,{4}34,45,
{2}56,56,
{2}56,{4}56,45,
{1}4pp3[2:1]/3qq3[2:1],
{2}56,78,
{1}8s4[2:1]/7z3[2:1],
{4}2V46[4:1],6V82[4:1],{2}2v8[4:1],
{4}5,6,5h[8:1]/7h[8:1],4h[8:1]/5h[8:1],

{4}2x/4x,{8},3,{2}34,
{4}24,45,{2}57,
{4}5x/7x,{8},6,{2}56,
{4}45,34,56,4x/7x,
{4}5h[4:1]/6,4h[4:1],3h[4:1],2>8b[4:3],
{1}2bhx[4:3],
{4}3x/4x,{8},6,{4}56,{8}7bx/8bx,1bx/8bx,
{1}1bx/2bxw6[2:1],

{4}7x/8x,56,{8}4v7[8:1]*v1[8:1],4,{4},
{4}26,3-1[8:1]/4-6[8:1],{2}34,
{2}1x-6[8:1]*-4[8:1],5x-8[8:1]*-2[8:1],
{4}37,5-3[8:1]/6-8[8:1],{2}56,
{4}18,12,23,34,
{8}5,5,6,6,7,7,{4}8,
{4}57,24,{8}45,5pp7[4:1]/4qq2[4:1],,4b/5b,
{4},3x/4x,2x/7x,5b/6b,

{4}8xV64[4:1],{8}3,2,{4}1-5[8:1],1b,
{4}4/7V53[4:1],{8}2,1,{4}8-4[8:1],8b,
{8}6<1[8:1],5,4,3<6[8:1],,1,{4}8-5[8:1],
{4}1x-4[8:1]/8x,1x/6x-3[8:1],2x-7b[8:1]/6x,2x/8b,
{4}46,{8}3,2,1-5[8:1],5-2[8:1],1b,8h[4:1],
{4},{8}17,26,{4}5-8[8:1]/3-8[8:1],3b/5b,
{4}7x-2[4:1],2x-5[4:1],5x-8[4:1],8x,
{16}1,2,3,4,5,6,7,8,{4}1-5[8:1],1b/2b,

{4}4xV28[4:1],{8}7,6,{4}5-1[8:1],1/5b,
{4}3V17[4:1]/8,{8}6,5,{4}4-8[8:1],4b,
{8}2>5[8:1],1,8,7>2[8:1],,5,{4}4-7[8:1]*-2[8:1],
{4}4x,6x-1[8:1]/5q2[8:1],{2}5b/6b,
{8}3p7[8:1],4,{4}5,{8}6q2[8:1],5,{4}4,
{8}3>8[8:1],4,{4}5,{8}6<1[8:1],5,{4}4,
{4}4-8[8:1],3b/4,5-1[8:1],5/6b,
{4}4-8[8:1],2b/4,5-1[8:1],5/7b,
{1}3x<6b[2:1]*-6b[2:1],
{16}8,1,8,1,{8}8,7x,4x/6x,46,,35,

{4}3x/5xq1[8:1],56,4p8[8:1],34,
{4}5q1[8:1],56,4p8[8:1],34,
{4}5q2[8:1],56,4p7[8:1],34,
{4}6x-1[8:1],5-2[8:1]/6,5/8<5[8:1],1b/8b,
{4}4p8[8:1],24,5q1[8:1],57,
{16}4x,3,2,1,8,7,6,5,{8}4x,1xw5[8:1],{4},
{8},3x/7x,{4}3x/7x,56,47,
{8}38,{16}2,1,{8}2,8,{2}17,

{4}6x-8[8:1],5,{8}3,3-1[8:1],,4,
{8},5,{4}5qq5[4:1],{2}5pp5[4:1],
{4}3-8[8:1],{8}6,6-2[8:1],,1-5[8:1],,8,
{8},37,{4}2>2[1:5]/6<6[1:5],{2}2b/6b,
{1},
{1},
{1},
{1},
{1},
E

Re:MASTER


名前:
コメント:

タグ:

+ タグ編集
  • タグ:
最終更新:2026年03月05日 22:10