アットウィキロゴ

Radiance

アーティスト Nhato

BPM BASIC ADVANCED EXPERT MASTER Re:MASTER
155 4 6 10+ 13+ -

EXPERT MASTER Re:MASTER
譜面制作者 はっぴー サファ太 -

BASIC


ADVANCED


EXPERT


MASTER

(155)

{8}E7/B6/B7/Ch[8:3],,,8,{16}8x,,,1x/7x,,,2x/6x,,{1}3bxq5<4[4:7]/5bxh[1:1],,
{2}8xh[1:1],{8}C,,E6,E5,,,,{24}E7,B6,B3,{16}E3,,,1x,,,2x/8x,,
{2}2^5[4:1]/8x,{16}6,,,7,,,8,,{8}8h[4:1],,5,7,{16}6<1[4:1],,,4,,,2,,
{16}2xh[4:1],,,,{1}1s5[4:3],{16},,,,4x/6x,,,3x/4x,,,2x/5x,,
{8}2xh[4:1]/5xh[4:1],,,3h[4:1]/4,,,2/4,1h[4:1]/5,,4,2,3,4,3,2/5,,
{8}7xh[4:1]/4xh[4:1],,,6h[4:1]/5,,,7/5,6,3,4,5,6,{16}5x/7x,,,7x/8x,,,
{8}2x/8x,2xh[4:1]/8x,,,1/3h[4:1],,4,2/5,,1/7h[4:1],,,6h[4:1]/8,,5,4>6V82-4q5[1:2]/7,,
{1}6bxh[1:3],,,{2}Ch[2:1],{8}E6,E7,1-5[8:1]/E8,,

{16}1x,,,,6,4,6,4,6,,3/7,,6,4,6,4,5h[8:1],,3,4,3,4,2h[8:1],,5,3,5,3,{4}6xh[4:1],
{16}8b,,,,2,8,2,8,2,7,2,7,2,6,2,6,3,5,3,5,2,4,2,4,1-5[8:1],3,1,3,{4}1,
{16}4b/6b,,,,7,5,7,5,7,,4/6,,3,5,3,5,3h[8:1],,6,5,6,5,7h[8:1],,4,6,4,6,{4}3xh[4:1],
{16}1b,,,,6,2,6,2,5,1,5,1,8,8,8,8,{4}8z4[4:1]*-5[4:1],,,3bx>1[8:1]b/6bx<8[8:1]b,

{4},4x/5x,{16}2/4h[16:3],,,3,4,,4/5,,5/6h[4:1],,,,5,,4,5,3h[16:3],,,4,4,,2,,
{16}1-3[8:1],,4,,1x,,,,5h[16:3],,,4h[16:3],,,3,,3x,,,,2/4,,3/5,,6h[16:3],,,5,7-4[8:1],,8,,
{4}1x,3x/5x,{16}7/5h[16:3],,,6,5,,5/4,,4/3h[4:1],,,,4,,5,4,6h[16:3],,,5,5,,7,,
{16}8-6[8:1],,5,,8x,,,,4h[16:3],,,5h[16:3],,,6,,{2}6-4[8:1]*^8[8:1],{16}4x/8x,,,5/7,,,6,,

{8}6-8[8:1],,1-5[8:1],2,3,,4/6-8[8:1],,2-4[8:1],,5-1[8:1]],6,7,,2-4[8:1]/8,,6-8>1[8:1],,1-5[8:1],2,3,,4/6h[4:1],,{24}E5,E4,E3,E2,E1,E8,E7,E6,E5,E4,E3,E2,{16}E1f/5bx,,,4bx/6bx,,,3bx/7bx,,
{2}3bx/7bxp4[2:1],{16}1,,,2,,,{8}3q5[2:1],,,,8,{16}8,,,7,,,{1}4-8[2:1]/6h[2:3],{16}8,1,2h[8:3],,,,,,,,{4}2-4[8:1]/6-4[8:1],2b-8[8:1]/6b,

{2}2/6h[4:1],6h[4:1]/E6,6h[4:1]/C,6h[4:1]/E5,6h[4:1]/C,6h[4:1]/E1,{4}Ch[2:1]/7,7,8,1,
{2}2h[4:1]/E4,2h[4:1]/E5,2h[4:1]/C,2h[4:1]/E1,2h[4:1]/C,2h[4:1]/E5,{4}Ch[2:1]/2,2,1,2x/8x,
{2}3h[4:1]/7h[2:7],4h[4:1],5h[4:1],6h[4:1],8h[4:1],8h[4:1],6h[4:1],{4}5h[4:1],8x,
{8}4/6,4,3,3,2/4,2,1,1,2/8,8,8,8,1/7,1,1,1,
{16}2,8,2,8,3,7,4,6,3,5,3,5,2,4,2,4,{8}1V53-8[8:3],,6,7,8w4[8:1],,8x,,

{16}2b/6b,,3,4,,7,8,,1/6,,2,4,,6,5,,4/7,,2,1,,3,4,,2h[8:1]/5h[8:1],,,7h[8:1]/4h[8:1],,,5/6,,
{8}8>3[4:1]/4,4,3q7[4:1],,7,8,1h[4:1],,7-3[8:1],,4-8[8:1]/7,,{16}4/5,,,7,,,2/8,,
{16}3/7,,6,5,,1,8,,2/5,,3,4-8[8:1],,1,1,,3,,2,2,,7,1,,2/8,,6,5,,3,4,,
{16}2h[8:1]/5,,4,2,4,3,4,2,4,5,6,7,1,2,3,4,{4}5-2[8:1]/8-5[8:1],5/8,{16}1x/4x,,2,5,3,4,2,5,
{8}3-5[8:1],,7,7,7h[4:1],,5,4,3h[4:1]/5,,4,5,4/6h[4:1],,5,4,
{4}3/6<4[2:1],,4<7V36-1[1:1],,1,2,3,4h[4:1],
{8}8,8,5/7,5/7,6,6,3/5,3/5,{16}2,6,2,6,3,5,4,6,3,7,3,7,4,8,4,8,
{16}5bh[8:1]/7bh[8:1],,,5h[8:1]/6h[8:1],,,2bh[8:1]/4bh[8:1],,,3h[8:1]/4h[8:1],,,1bh[8:1]/2bh[8:1],,,3/8,,E7/B6/B5/E5/E6f,,,,,{8}2x/8x,3x-8[8:1]b/7x-4[8:1]b,,3b/7b,,

{16}1x/5x,,2-5[8:1],4,3,4,2,,7,,7,5,6,3,4,6,8h[8:1],,5,5,7-3[8:1],3,6,4,7,,1,1,4,2,5,1,
{16}6^8[8:1],,8>3[8:1],,6,,,,5h[8:1],,,4h[8:1]/6h[8:1],,,2/8,,3b/7b,,,,4/7,,{24}6,5,6,{16}5b-1[8:1],,,8,8,,6,,
{16}2x/6x,,3-8[8:1],5,4,5,3,,7,,1,1,6,2,4,3,7h[8:1],,4,4,6-2[8:1],5,7,4,6,,3,3,7,1,4,,
{8}2-5[8:1]/7-1[8:1],6/1,2-7[8:1]/7-4[8:1],,2>5[8:1]/7,,2/6,6,4b/7b,,3/8,{24}2,1,2,{4}1bw5[8:1],1b,

{16}2x/7x,,3,5,4,6,5,7,3,8,3,6,1,6,2,5,2,4,3,6,5,7,4,8,3,7,3,5,1,5,2,4,
{16}2,5,3,6,1,8,2,7,5,6,4,8,3,7,1,5,2h[4:1],,,,7,,1b/8b,1b/8b,2b/7b-3[8:1]b,,,1b-5[8:1]b/7b,,,1b,,
{16}7b,,7,8,6-1[8:1],1,5,2,6,,4x,4,8,2x,2,,1b/8b,,2,1,3-8[8:1],8,4,7,3,,5x,5,1h[8:1]/6h[8:1],,,,7,8,7,1,6,2,4,3,1,2,1,3,8,4,6,5,7b,8,6,3,4,2,6,5,7,2,1,3,4xz8[8:1]b[8:1]/5x-8[8:1]b[8:1],,,,4b/5b/D1/C/D5/E1/E5,E

Re:MASTER


  • 追加しました。シアミラ(2026/02/26 14:06:12)
名前:
コメント:

タグ:

+ タグ編集
  • タグ:
最終更新:2026年02月26日 14:06