アットウィキロゴ

*ハロー、プラネット。〈でらっくす〉

アーティスト sasakure.UK

BPM BASIC ADVANCED EXPERT MASTER Re:MASTER
150 2 7 9 12+ -

EXPERT MASTER Re:MASTER
譜面制作者 Luxizhel 鳩ホルダー -

BASIC


ADVANCED


EXPERT


MASTER

(150)
{4}5h[4:1]/4h[4:1],,5/4,5/3,
{16}2,4,3,,6,,4,,7,5,
{8}6,3,5,5h[4:1]/3h[4:1],,,{16}4,5,
{8}4V68-5[1:1]*V28-3[1:1],{2},,,
{8}2,3,4,3,4,5,6h[4:1],,4,5,6,7,8,1,2,3h[4:1]/7h[4:1],,,
{16}7,4,7h[4:1],,,,,,3,5,3h[4:1],,,,,,6,5,6h[4:1],,
{8},,6/4,,6,6,6,6,5,4,3h[4:1],,5,4,3,4,3,2,1,
{2}8-6[8:1]/1-6[8:1],8-6[8:1]/2-6[8:1],8-6[8:1]/3-6[8:1],8-6[8:1]/4-6[8:1],
{8}3h[8:7],4,4,4,5,5,5,5h[8:7],,6,6,6,7,7,
{4}7-1[8:1],,2v4[8:1]/6v4[8:1],,
{24}A3,D4,A4,D5,A5,D6,
{4}A6,2-6[4:1]/7-3[4:1],,,2-4[8:1],8-6[8:1],1-5[8:1],6,7-5[8:1],1-3[8:1],8-4[8:1],3,
{16}5h[4:1]/4h[4:1],,,,,,4,5,4,,3/6,,
{4}6/3,8b/1b,2,3,4,
{16}4h[2:1]/6>3[4:1],,{4},,,{16}2,1,
{2}3-5[8:1],6-4[8:1],5h[4:1]/3h[4:1],
{4}6/2,1q4[4:3]/8p5[4:3],,,,,
{2}3h[2:1],5h[2:1],7h[2:1],
{8}8,8,1/8-4[4:3],,
{4}2h[4:3],,,,A1/B1/Cf/B5/A5,,,
{4}1x>3[4:1],3<5[4:1],5<7[4:1],7>2[4:1],2>5[4:1],5-8V64[2:1]*p8V24[2:1],,,,
{16}3/5,,2,4,3,,7,5,6,,3,4,3,,6,5,7,5,6,4,5,3,4,,
{4}2/4,1>4[8:1]/5<8[8:1],,5p1[8:1]/1p5[8:1],,
{4}1>4[8:1]/5<8[8:1],,5p1[8:1]/1p5[8:1],1x>4[8:1]/5x<8[8:1],,
{8}8xh[8:7],6,6,6,6,6,6,6,,1h[8:3],3,3,3,,
{4}2v5[8:1]/8v5[8:1],,6V84[4:1],4-2[8:1],,
{8}1,1,3,3,6,6,8,8,
{16}8/1h[16:3],,,2h[16:3],,,3,,8h[16:3],,,7h[16:3],,,6,,5h[16:3],,,4h[16:3],,,
{8}3,2,1,7,8,8-6[8:1]/1-3[8:1],,,,5-8[8:1]/4-1[8:1],,,,1,2,3/4,,8,7,6/5,,
{16}B4,B3,B2,B1,B5,B6,B7,B8,A4,A3,A2,A1,A5,A6,A7,A8,Cf,,,,
{4}8,7/3,6/2,
{16}1/6h[2:1],,E1,E8,E7,E6,E5,,2h[2:1],,E1,E2,E3,E4,E5,,
{16}7h[2:1],,E8,E7,E6,E5,E4,,1h[2:1],,E2,E3,E4,E5,E6,,
{16}8h[2:1],,E7,E6,E5,E4,E3,,
{4}1,2<5[2:1]/7>4[2:1],,,,5/4,
{8}C/B8/B7/E8f/A8/A7,,,C/B3/B4/A4/E4f/A3,,,C/B6/B5/E6f/A6/A5,,,E2f/C/B1/B2/A1/A2,,,
{4}6/5,3/4h[4:1],1,3/2h[4:1],8,6/5h[4:1],8,6/7h[4:1],
{4}1,4/3h[4:1],8,5/6h[4:1],1,3/4w8[4:1],,,1b/7b,,
{8}5/6-1[8:1],7,6/5,4,5/6-1[8:1],7,6/5,4,5/6-1[8:1],
{8}7,6/5,4,6/4>5[8:3],,5,5q3[4:1],,4,4,,5<4[8:3]b,,4,4p6[4:1]b,,5,5,,
{4}7-3[8:1]/8-4[8:1],7b/8b,
{2}3-6[8:1]/2p6[8:1],7-2[8:1]/6p2[8:1],1-4[8:1]*<6[8:1],
{8}3/5<4[8:3],,4,4p6[4:1],,5,5,,4>5[8:3]b,,5,5q3[4:1]b,,4,4,,
{4}2-6[8:1]/1-5[8:1],2b/1b,
{2}7>3[8:1]/3v5[8:1],2<6[8:1]/6v4[8:1],7>3[8:1]/3v5[8:1],
{8}4>5[8:3],,5,5q3[4:1],,4,4,,5<4[8:3]b,,4,4p6[4:1]b,,5,5,,
{4}5-8[8:1]/3-8[8:1],5b/3b,7V15[4:1],5-3[8:1],2,2,1-4[8:1]*-6[8:1],1,3>6[8:3],
{8}6,6q3[4:1],,5,5,,5/4,,2h[4:1]/7h[4:1],,,
{16}4,5,3,4,2,5,1,6,8,7,
{32}E1,E2,E3,E4,E5,E6,E7,E8,E1/Cf,
E

Re:MASTER


名前:
コメント:

タグ:

+ タグ編集
  • タグ:
最終更新:2026年03月29日 15:02