アットウィキロゴ

Strange Bar

アーティスト Laur

BPM BASIC ADVANCED EXPERT MASTER Re:MASTER
110 2 7+ 10+ 13+ -

EXPERT MASTER Re:MASTER
譜面制作者 はっぴー シチミヘルツ -

BASIC


ADVANCED


EXPERT


MASTER

(110)
{24}45,,45,,,3,4,,,25,,25,,,3,4,,,45,,45,,,6,5,,5,6,,6,5,,,47,,,6,,6,5,,,47,,,,,,

45,,45,,,3,4,,,25,,25,,,3,4,,,45,,45,,,4,5,,,3,4,3,4,,,6,5,6,5,,,1,8,1,8,,,2x/7x,,,
45,,,,,2,1,,,38,,38,,,2,,,2,1,,,28,,,18,,,,,7,8,,,61,,61,,,7,,,7,8,,,71,,,81,,,,,2,1,,,38,,38,,,2,,,2,1,,,27,,,
7b/E4,,,,1b/E6,,,,8b/E4/B4,,,,2b/E6/B5,,,,1b/8b,,,,,,,,{1}1bp8[2:1]/Cf,

{24}6,,6h[8:1],,,5,5,,,46,,46,,,4,5,,5,3,,,25,,,3,,3h[8:1],,,4,4,,,35,,3/5-8[8:1],,,Cf,,,,,,,27,,,
6,,6h[8:1],,,5,5,,,46,,46,,,4,5,,5,3,,,25,,,3,,3,4,,4,5,,5,6<3[4:1],,6,4,,,Cf,,,,,,,,,
2,,2h[8:1],,,4,4,,,35,,35,,,5,4,,4,6,,,57,,,6,,6h[8:1],,,5,5,,,46,,,25,,3,4,2,6,5h[12:1],,8h[8:1],,,Cf,,,,,,,
1,,,27,,27,,,6,5,,5,6,,,47,,,2,1,,,78,,,56,,,34,,,2,1,,7,8,,56,5qq2[4:3]/6pp1[4:3],,47,,,,{8}5b/6b,,,,,,,

{24},36,,,1/8h[4:1],,,,,,3,,3h[8:1],,,1,2,8,1,7,,7,8,,16,,,7,8,,2,1,,3/8h[8:1],,,1,2,3,4,6,,6,5,,5,47,,,56,,,{48}4h[48:1],5h[48:1],{24},,,,3,4,,4,2h[24:5],,,,,1,2,,7,8,,6/1h[6:1],,,,5,6,7,2,3,4,8,7,6,4,3,2,1h[12:1],,5,,,2x/7x,,,

3,4,,,24,,,57,,,56,,,24,,,34,,,5h[8:1]/7,,6,6,,,34,,,24,,,56,,,5h[8:1]/7,,6,6,,,47,,6,5,7,1,8,,8,3h[12:1],,1,2h[12:1],,8,1h[12:1],,7,8h[12:1],,6,3,4,3,6,5,6,2,4,3,7,5,6,{4}1bs5[8:3],,,

{8}2bz6[8:1]/7bs3[8:1],1b/8b,,,1/5h[8:1],6,2<7[8:1],7>2[8:1],5h[8:1],,6>3[8:1],3<6[8:1],1h[8:1],,
1,27,36,{24}4,5,3,{8}4-8[8:1],8-4[8:1],1h[8:1],,{24}2,,2,3,,3,4,,4,5,,5,{8}6p8[8:1],8,7-4[8:1],7-2[8:1],7-3[8:1],7V15[4:1],7,7,

6x,6x,1/5h[4:1],3,7^2[8:1],2<7[8:1],4h[8:1],,3^6[8:1],6^3[8:1],8h[8:1],,8,17,26,{24}5,4,6,{8}5-1[8:1],1-5[8:1],8h[8:1],,{24}7,,7,6,,6,5,,5,4,,4,3,,1,8,,2,7,,3,6,,4,5,,4,5,,1z5[24:4],8bs4[8:1],,1,{8}8,,,

8-3[8:1],3-8[8:1],8-5[8:1],5<3[4:1],4,Cf,,,1-6[8:1],6-1[8:1],1-4[8:1],4>2[12:1],5-8[8:1],5,5b,,
7-4[8:1],4-7[8:1],7-2[8:1],2<4[4:1],3,Cf,,,1,16,{24}38,,6,5,,3,4,,,{8}17,35,28,

1-6[8:1],6-1[8:1],1-4[8:1],4>6[4:1],5,Cf,,,8-3[8:1],3-8[8:1],8-5[8:1],5<7[12:1],4-1[8:1],4,4b,,
2-5[8:1],5-2[8:1],2-7[8:1],7>5[4:1],6,Cf,,{24},,7,7,,,,,2,2,,8,1,,8,1,,,2b/7b,,,

{24}4h[12:1]/5h[12:1],,,,,3,{8}4,25,4^6[8:1],3,2,, {24}4h[12:1]/5h[12:1],,,,,3,{8}4,25,4^6[8:1],3,2,, {24}5h[12:1]/4h[12:1],,,,,6,{8}5,74,5^3[8:1],6,7,,
{24}2,,2,1,,1,8,,8,7,,7,6,,6,5,,5,4,,,36,,,

{24}5h[12:1]/4h[12:1],,,,,6,{8}5,74,5-2[8:1],6,7,,
{24}5h[12:1]/4h[12:1],,,,,6,{8}5,74,5-2[8:1],6,7,,
{24}4h[12:1]/5h[12:1],,,,,3,{8}4,25,4-7[8:1],3,2,,
{24}6,,6,5,,5,8,,8,3,,3,4,,4,1,,,2v5[8:1]/7-4[8:1],,,18,,,2b/7b,,,,,,

6/2^7[8:1],,3,4,,4,2^5[8:1],,,6,,,2/8p4[8:1],,,1,,,38,,,2,,,6/1-4[8:1],,8,7,,7,1,,,8,,,3-8[8:1]/7-4[8:1],,,26,,,37,,,,,,
2/6v1[8:1],,7,8,,8,6^3[8:1],,,4,,,26,,,1,,,
{32}3/7h[16:1],4,5,,,3/8h[16:1],4,5,,,3/1h[16:1],4,5,,,,{24},,1b/8b,,,,3^1[8:1]/6^8[8:1],,4,5,,5,3b/6b,,,,,,
3/7^2[8:1],,6,5,,5,7^4[8:1],,,3,,,7/1q5[8:1],,,8,,,61,,,7,,,3/8-5[8:1],,1,2,,2,8,,,1,,,6-1[8:1]/2-5[8:1],,,73,,,62,,,,,,

3-8[8:1]/7,,2,1,,1,3v6[8:1],,,5,,,3/7<8[8:3],,,8,,,17,,,{8}Cf,,,

1,45,2b-5[8:1]/7bv4[8:1],,2b/7b,,

{24}3/7pp8[8:1],,6,5,,5,7^4[8:1],,,3,,,7/1V35[8:1],,,8,,,61,,,7,,,3/8-4[8:1],,1,2,,2,8,,,1,,,6-1[8:1]/2-5[8:1],,,48,,,62,,,,,,
7/3qq2[8:1],,2,1,,1,3^6[8:1],,,5,,,73,,,8,,,
{32}6b/8h[16:1],5,4,,,7b/2h[16:1],6,5,,,8b/4h[16:1],7,6,,,, {24},,8b/1b,,,,6^8[8:1]/3^1[8:1],,5,4,,4,6b/3b,,,,,,

6/2qq1[8:1],,3,4,,4,2^5[8:1],,,6,,,2/8V64[8:1],,,1,,,38,,,2,,,6/1z5[8:1],,8,7,,7,1,,,8,,,3v8[8:1]/7-4[8:1],,,51,,,37,,,,,,
26,,1,8-6[8:1],,8,{8}3-7[8:1],8-4[8:1],3-1[8:1],8<2[8:3],3,Cf,,,

{24}1h[8:1],,,2,3,4,5-8[8:1],6,7,5h[8:1],,,E

Re:MASTER


名前:
コメント:

タグ:

+ タグ編集
  • タグ:
最終更新:2026年04月05日 14:14