アットウィキロゴ

1000年生きてる

アーティスト いよわ

BPM BASIC ADVANCED EXPERT MASTER Re:MASTER
100 3 7+ 9 13 -

EXPERT MASTER Re:MASTER
譜面制作者 サファ太 はっぴー -

BASIC


ADVANCED


EXPERT


MASTER

(100)
{4},,,E5,
{8}6,6h[8:7],4,,5,5,4,,
3,3h[8:7],5,,4,4,5,,
6,6h[8:3],5,4,3,3h[8:3],4,5,E6,
46,E4,35,E5,36,{24}4^1[8:1],5,4,5,,,
{4}4^7[8:1],4^1[8:1],4^7[8:1],4,
{8}7h[8:1],5h[8:1],4h[8:1],2h[8:1],6,6,
1pp4[8:3],8,7,6,5pp8[8:3],6,3,2,1-6-4-2[8:3],1,,,,,,

3b/6bh[24:5],{12},4b,3b/5b,
{8}2b>6[8:1]/4b,,8h[4:1],,5,5,46,3,2V46[8:1],1,8,8,4v1[8:1]/6v1[8:1],5,,,
2pp6[4:1],1,7,,8,8,7-2[8:1],4,3-6[8:1]/7,,7^2[8:1]/3,,3^6[8:1]/7,4,,7,7<3[8:1],,2h[4:1],,8,8,35,6,4/7V53[8:1],8,2h[8:3],,5h[8:1],,
3^8[8:1]b,,3/7^4[8:1]b,,27,,1,1,A3/E4/B4/B3,,
1h[8:1]/7h[8:1],,28,{24},,4,5-1[8:1],,,{8}46,A7/D7f/A6/E7,,

2>6[8:1]/5,7,2/8qq5[4:1],8,1,3,4^7[8:1],45,4^1[8:1],3,4pp8[4:1],5,4,3,3h[12:1],,84,75{24},,6,
{8}5^2[8:1],46,5V71[8:1],6,5/4v7[8:1],3,6^3[8:1],,8>4qq5[8:3],,5,6,7,,
4/7<3[8:1],2,7/1pp4[4:1],1,8,6,5^2[8:1],46,5^8[8:1],6,5s1[8:1],4,5,6,7-5[8:1],2-6[8:1],7^2[8:1],2,7-4[8:1],3-6[8:1],7,3,8-3[8:1],75,8-5[8:1]/4,4,8-2[8:1]/4,4,8-6[8:1]/4,4,{24}48,3,2,1,8,7,{8}6,

,5h[8:1]/7h[8:1],,4h[8:1]/6h[8:1],,B4/E4/A3,B2/E3/D3,E1/A1/D2,,B5/E6/A6,D7/E7/B7,D8/A8/E1,,1h[8:1]/8h[8:1],,5h[8:1]/7h[8:1],,2h[8:1]/4h[8:1],,8/1^2v3-5^4-6pp7[1:1],1/8h[4:5],,,,,,,,,,,

{16}6,5,4,3,5,6,5,4,3h[8:1],,5,,45,,46,,6,5,4,3,3,6,5,4,3,,35,,6,,46,,5,4,3,6,5,4,3,5,6,,46,,3,,35,,
6h[8:1],,5,4h[8:1],,5,6h[8:1],,{8}5,34,5/2^7[4:1],25,4,3,2v7[4:1],2,4,3,2-7[4:1],2,4,3,2v7[4:1],2,4,3,2^7[4:1],2,4,3,2-7[4:1],2,4,3,2v7[4:1],2,4,3,2V86[4:1],2,4,3,2,2,{12}E5,E6,E7,E8,E1,E2,{8}E3,24,

{24}1^4[8:1],5,1,5^8[8:1]b,,,{8}1-5[8:1],5-2[8:1],1,8,6<2[8:1],6,3,3,6/2-4v5-7[4:1],62,7,8,8q4[8:1],8,5h[12:1],6,57,{16},7,{8}8qq8[4:1],8,1,2,3>6[4:1],3,6<3[4:1],,3>6[4:1],,6,,5V71[8:1],4,3/5qq8[4:1],4,5,6,6,5,{16}1h/7h,1h/7h,2h/6h,2h/6h,{8}5/3-7[8:1],4,5/3^1[8:1],4,35,4,6/1-7-2-6-3-5[8:5],1/6h[4:3],,,,,,,,4,,
78,56,4<3[4:1]b/3q4[4:1]b,12,,,,

{8}8b-4[8:1],7,6-2[8:1],5,4-8[8:1],3,2-6[8:1],1,8-4[8:1],7,6-2[8:1],5,4pp8[8:3],3,2,2,1q5[8:1],,1^6[8:1],,1v4[8:1],2,17,8,1^6[8:1]/2^5[8:1],38,1-5[8:1]/2-6[8:1],,1b/2b,,4b/7b,,8v2[8:1],5,8-4[8:1],5,8v6[8:1],3,8,3,2h[8:1]/5,4,4/7h[8:1],5,4^2[8:1]/5^7[8:1],36,,,

{24}2-6[8:1],5,3,5,,,{4}2,{24}7-1[8:1],4,6,4,,,{8}7/4^1[8:1],,4^7[8:1],6,4^1[8:1],2,4,5,{24}4,5,6,7,8,1,{4}2h[4:7],,4q5[4:1],,,,,E5,

{8}6^8[8:1],,4,4,3^1[8:1],,5,5,6^8[8:1],,4,4,3,3,
5-8^1-4^5[1:1],{24}5,6,4,{1}3h[1:1],,,,E

Re:MASTER


名前:
コメント:

タグ:

+ タグ編集
  • タグ:
最終更新:2026年04月08日 19:46