アットウィキロゴ

39〈でらっくす〉

アーティスト sasakure.UK x DECO*27

BPM BASIC ADVANCED EXPERT MASTER Re:MASTER
175 3 7 9 12+ -

EXPERT MASTER Re:MASTER
譜面制作者 はっぴー Jack -

BASIC


ADVANCED


EXPERT


MASTER

(175)
{8}8h[4:1],,,8,,,8h[4:1],,,8,,,8h[4:1],,,8/4qq4[8:3],,7,,8,
{8}8h[4:1],,,8,,,8h[4:1],,,8,,,8h[4:1],,,8/1pp1[8:3],,7,,8,
{8}7,7,7,6-3[8:1],,,2,2,2,3-6[8:1],,,7,7,7,6-3[8:1],,2-7[8:1],,,
{8}8,8,8,7-2[8:1],,,1,1,1,2-7[8:1],,,8,8,8,7-2[8:1],,3,4,5,6/2,3b/7b,,,
{8}6/4h[8:3],,,5,4,5,,3/4,,2/3,,2/1^6[8:1],,4,4,,
{8}3/5h[8:3],,,4,5,4,,6/5,,7/6,,8^3[8:1]/7^4[8:1],,,,,
{8}2/5h[8:3],,,4,5,4,,3/4,,2/3,,2/1^6[8:1],,4,4,,
{8}5-1[8:1],,2,2-4[8:1],,5,5-7[8:1],,8,8-4[8:1],,
{8}5b,5h[8:3],,,4,5,4,,5/6,,2/3,,7/8^3[8:1],,5,5,,
{8}6/4h[8:3],,,5,4,5,,3/4,,6/7,,1^6[8:1]/2^5[8:1],,,,,
{8}7/4h[8:3],,,5,4,5,,7>3[4:1],,3v5[4:1],,5,,1,1>8[8:3],,8,,,,8,8,,
{8}1h[4:1],,8,1,7,2,6,4-1[4:11],,
{4},B5/E6,,B7/B6,,E8/B8,,B7/B6,,E6/B5,,B7/B6,
{8}1-5[8:1],,7,,8,8,1,,2/8,2^5[8:1]/8^5[8:1],,,,1,1,8,8,1^4[8:1]/7^4[8:1],,,,,
{8}4,4,5,5,3/6,3/6,2/7,2/7,1x/8x,1x-5[8:1]/8x-4[8:1],,1x/8x,,3b/6b,,
{8}4,5,6,4/7,4/7,,E1/B1/B2/E3/Cf,,5,4,3,5/2,5/2,,E1/B8/B7/E7/Cf,,
{8}5,5,4/6,4/6,3/7,,B7/B8/B1/B2/B3/Cf,,4,4,5/3,5/3,6/2,,B2/B1/B8/B7/B6/Cf,,
{8}4/5,4/5,3/6,3/6,2/7,,Cf/B7/B8/B1/B2,,
{4}4b-2[8:1]/5b-1[8:1],,5b-7[8:1]/4b-8[8:1],,4bqq1[4:2]/5bpp8[4:2],,,,
{8}5x/4xq5[4:1],,4x/5x<4[4:1],,,,,E6/E5/E4,,Cf/B8/B7/E7/E8/B1/B2/E3/E2,,,4/5,4/5,,
{4}2/1<5[4:1],4,8>4[4:1],5,1<5[4:1],4,8>4[4:1],5,
{8}1,1,1,,2/3,,4/5,,6/7,,1b/8b,,,
{16}4,5,4-1[8:1],,,,
{8}8,,1/8,1/8,2/7,2/7,3/6,3/6,4b/5b,,
{8}4,5,6,4/7,,Cf/E1/B1/B2/E3,,5,4,3,5/2,5/2,,Cf/E1/B8/B7/E7,,
{8}5,5,4/6,4/6,3/7,,B7/B8/B1/B2/B3/Cf,,4,4,5/3,5/3,6/2,,B2/B1/B8/B7/B6/Cf,,
{4}4>8[4:1],8<4[4:1],4p8[4:1],8p4[4:1],4>8[4:1],8<4[4:1],4,8w4[8:1],,
{8},2/6,2h[4:1]/6h[4:1],,,3/7,3/7,6,5,4,3,2/7,2/7,2b/7b,,
{8}1b-5[16:1],1x,7b-3[16:1],7x,2b-6[16:1],2x,8b-4[16:1],8x,
{8}1b-5[16:1],1x,7b-3[16:1],7x,2b-6[16:1],2x,8b-4[16:1],8x,
{32}1b-5[16:1],Cf,,,1x,,,,7b-3[16:1],Cf,,,7x,,,,
{32}2b-6[16:1],Cf,,,2x,,,,8b-4[16:1],Cf,,,8x,,,,
{32}1b-5[16:1],Cf,,,1x,,,,7b-3[16:1],Cf,,,7x,,,,
{32}2b-6[16:1],Cf,,,2x,,,,8b-4[16:1],Cf,,,8x,,,,
{32}1hx[4:2],Cf,,,,,,,
{4},5hx[4:2],,Chf[4:3],,,,
{4}8^3[4:2]/7h[8:3],,,7h[8:3],,,7h[8:3],,{8},1,,2,
{4}1^6[4:2]/2h[8:3],,,2h[8:3],,,2h[8:3],,,2h[8:3]/3<6[4:2],,,
{8}7,7,7,8-3[8:1],,,2,2,2,1-6[8:1],,,7,7,7,8-4[8:1],,5-1[8:1],,,
{8}2,2,2,1-6[8:1],,,7,7,7,8-3[8:1],,,1,1,1,2-5[8:1],,,8,8,8,7-4[8:1],,,
{8}1h[8:3],,,E5,,,2h[8:3],,,C,,,3h[8:3],,,E1,,4/5,,6,
{8}6h[8:3],,,E5,,,7h[8:3],,,C,,,8h[8:3],,,E1,,,1h[8:3],,,C,,,2h[8:3],,,E5,,,
{8}3h[8:3],,,C,,,4h[8:3],,,E1,,4/5,,5,4,,6,5,6,,4/5,,3,4,3,,
{8}E2,E8,E3,E7,E4,E6,E5,E7,E3,E8,E2,C,
E

Re:MASTER


名前:
コメント:

タグ:

+ タグ編集
  • タグ:
最終更新:2026年02月25日 15:59