アットウィキロゴ

Believe the Rainbow〈でらっくす〉

アーティスト Shoichiro Hirata feat.Sana

BPM BASIC ADVANCED EXPERT MASTER Re:MASTER
133 2 6 9+ 13 -

EXPERT MASTER Re:MASTER
譜面制作者 Jack チャン@DP皆伝 -

BASIC


ADVANCED


EXPERT

(133){1}4-1[4:5],,5-8[4:5],{4},,,E7/B6/E3/B2/Cf,8h[4:1],1h[4:1],2h[4:1],3h[4:1],4q5<3[4:5],,,,,,,2/4,3/5,4/6,{8}5/7,8x,{4}8x,1h[4:1],8h[4:1],7h[4:1],6h[4:1],5p4>6[4:5],,,,,,,7/5,6/4,5/3,{8}4/2,1bx,{4}1bx,

{4}6h[4:5],B5,,E6,,E5,6,4/5,3h[4:5],B4,,E4,,E5,3<6[4:1],,7h[4:5],E6,,E5,,5-3>2[4:1]*-7>8[4:1],,,{1}1pp8[2:1],5pp4[2:1],{8}3hx[16:3]/4hx[16:3],,,E3/B3/B4/E5,,,6<3[8:3]b,,,,,,4,4,5,,6hx[16:3]/5hx[16:3],,,E7/B6/B5/E5,,,1s5[8:3],,,,,,8,8,1x/7x,,{4}3,2/4,6,5/7,2h[4:1],4h[4:1],5h[4:1],7h[4:1],6>3[4:1]*<1[4:1],,,4/8,3<6[4:1]*>8[4:1],,,5/1,

{8}3h[8:3],,,4,3/4,,A2/E3/A5/E5,,6h[8:3],,,5,6/5,,A7/E7/A4/E5,,2h[8:3],,,1,2/1,,A3/E3/A8/E1,,7h[8:3],,,8,7/8,,A6/E7/A1/E1,,{4}3/5,6h[4:1],7h[4:1],8h[4:1],1h[4:1],2h[4:1],3h[4:1],4,{8}7bh[4:1]/1h[4:1],,,3bh[4:1]/4h[4:1],,,5bh[4:1]/6h[4:1],,,8bh[4:1]/2h[4:1],,,1x/7x,1x/7x,2bx/6bx,,

{8}8,7,1/6,,3,4,2/5,,7,7,1,1,8-4[8:1],,2x,,1,2,3/8,,6,5,4/7,,2-5[8:1],,8,,6-1[8:1],,4,,{4}4xq1[4:1]/8x<5[4:1],,,E3/B2/B3,5xp8[4:1]/1x>4[4:1],,,E7/B7/B6,2h[8:1]/4h[8:1],7h[8:1]/5h[8:1],{8}4x,4xpp4[8:5]b*qq4[8:5]b,{1},{4}B8f/A8/E1/E8,{8}3,4,5/2,,8,7,6/1,,2,2,8,8,1-5[8:1],,7x,,6,5,7/4,,1,2,8/3,,7-5[8:1],,1-3[8:1],,8-4[8:1],,,,{4}2x>5[4:1]/6xp1[4:1],,,E1/A8/B8,7x<4[4:1]/3xq8[4:1],,,E1/A1/B1,{1}2xpp1[2:1]/6xpp5[2:1],Chf[4:3],,

{8}6,,5/6,,7,7,1,,3,,4/3,,2,2,8,,{1}6p4[2:1],{16}2hx[16:3],,,3hx[16:3],,,4bhx[8:3],,{8},8,8,,{16}7hx[16:3],,,6hx[16:3],,,5bhx[8:3],,{8},1,1,,3h[16:3]/8h[16:3],,,6h[16:3]/1h[16:3],,,4bx>5[4:7]/5bx,,{1},,,,,,{4}4h[1:1],E3,E1,E7,5h[1:1],E7,E1,E3,4,5/7,{8}2/4,4v1>2-4[8:5]*v7<6-4[8:5],,,{4},,,B8f/A8/E1/E8,{8}3/4,2,1/5,,6/5,7,8/4,,2,3,4,5,6,7,1b/8b,,6/5,7,8/4,,3/4,2,1/5,,1/8,1/8,2/7,3/6,4b-1[8:1]b/5b-8[8:1]b,,,,2x/7x,3,4,5w1[4:1],,,,,3/7,6,5,4w8[4:1],,,,,2/6,7,8,1w5[4:1],,,,,2/8,2/8,3/7,4/6,,1/5<4[8:15],,Cf,E

MASTER

(133){1},
{4}4^6q3q7[1:1],A8,,A2,,A8f,,,
{4}5^3p6p2[1:1],A1,,A7,,A1f,,8xb,
{4}2x,6/8,1/7,2/8,1/3>6b[2:1]*p6b[2:1],,,,
{4}4xq8[8:1]/6x^3[8:1],,3xv6[8:1]/8xq4[8:1],,3x^6[8:1]/5xp1[8:1],,1xp5[8:1]/6xp1[8:1],,
{4}7x,1/3,2/8,1/7,6<3b[2:1]*q3b[2:1]/8,,,,
{4}3x^6[8:1]/5xp1[8:1],,1xp5[8:1]/6xv3[8:1],,4xq8[8:1]/6x^3[8:1],,3x/8x,Cf,
{8}6h[4:1],,8,8h[4:1],,1,1h[4:1],,3,3h[4:1],,4,4-7[8:1],,,,
{8}3h[4:1],,1,1h[4:1],,8,8h[4:1],,6,6h[4:1],,5,5-1[8:1],,,,
{8}7x-4[4:1],,1,1-6[4:1],,8,8-3[4:1],,2,2-5[4:1],,7,7,,8>7[2:1],,,,,,,,1x<2[2:1],,,,,,,,,,
{16}2h[8:1]/Ch[8:1],,,6h[8:1]/Ch[8:1],,,2h[8:3]/Chf[8:3],,,,,,,,,,,,,,,,E1/E5,,,,E3/E7,,,E1/E5,,,
{16}7h[8:1]/Ch[8:1],,,3h[8:1]/Ch[8:1],,,7h[8:3]/Chf[8:3],,,,,,,,,,,,,,,,E1/E5,,,,E3/E7,,,E1/E5,,,
{4}3V52-5[4:3],A6,A1,A6,6V47[2:1],A3,A8,3<7[2:1]*q8[2:1],,,,
{8},6>1[2:1]*p1[2:1],6,,
{4},,,
{4}2/Ch[4:3],1,8,7>6[4:1],,,
{32}A7,A8,A1,A2,A3,A4,A5,A6,
{4},7/Ch[4:3],8,1,2<3[4:1],,,
{32}A2,A1,A8,A7,A6,A5,A4,A3,
{4},5xw1[8:1],
{32}B5,C,B1/B2/B8,A1/A2/A8/D1/D2,,,,,
{4}4xw8[8:1],
{32}B4,C,B1/B7/B8,A1/A7/A8/D1/D8,,,,,
{4}5xw1[8:1],
{32}B5,C,B1/B2/B8,A1/A2/A8/D1/D2,,,,,
{4}4xw8[8:1],
{32}B4,C,B1/B7/B8,A1/A7/A8/D1/D8,,,,,
{8}A2/A3/B2/B3/E3f,,,A6/A7/B6/B7/E7f,,,2/4,2/3,3/4,4/5,5/6<3b[8:1]*q3[8:1],,
{32}B7,B8,B1,B2,

{8},,,
{8}1-6[8:1],1,1-5[8:1],,1-4[8:1],,,,1/5-1[8:1],2,3,4,1^4[8:1]/5,6,7,8,
{8}8^5[8:1],2,4^7[8:1],2,8^5[8:1],2,4,,
{4}4q8[8:1]/8q4[8:1],4^1[8:1]/8^5[8:1],4q8[8:1]/8q4[8:1],,
{8}3^6[8:1],6-3[8:1],3-8[8:1],8^3[8:1],7-4[8:1],7,7q1[4:1],,,,,3,,,1^4[8:1]/8,2,
{8}1/8^5[8:1],7,1^4[8:1]/8,2,1/8^5[8:1],7,1/8,,
{4}1b^4[8:1]*^6[8:1],1b,1bw5[8:1],1b,
{4}1-4[16:1]/8,1-5[16:1]/6h[8:1],1^3[16:1]/6h[8:1],1/6h[8:1],1b-3[8:1]/5b-7[8:1],1b-5[8:1]/5b-1[8:1],1b^4[8:1]/5b^8[8:1],1b/5b,
{4}6-3[8:1]/8V27[8:1],,2-7[8:1]/4V63[8:1],,4-1[8:1]/6^3[8:1],4/6-8[8:1],5-1[8:1]/6,5/8-3[8:1],
{4}2-6[8:1]/8,2/4^1[8:1]*^7[8:1],4,,
{8}6^3[4:1],2^7[8:3],,,,,,,1^4[4:1]*>7[2:1],8,
{4},,,Cf,,4-8[8:1],4b>6[2:1],,,,1^4[4:1],4^7[4:1],7^2[4:1],2^5[4:1],5^8[4:1],8>4[4:1],4<8[4:1],8>4[4:1],4<4[8:3],,,

{8}8x,8x,8x,7x,6x,5x,4x,3x,2x,1x,8x,7x,
{12}6x,5x,4x,3x,2x,1x,
{16}8x,7x,6x,5x,4x,3x,2x,1x,
{24}8x,7x,6x,5x,4x,3x,2x,1x,8x,7x,6x,5x,
{32}4x,3x,2x,1x,8x,7x,6x,5x,
{48}4x,3x,2x,1x,8x,7x,6x,5x,4x,3x,2x,1x,8xb-4[16.2408##0.2256],
{48},,,,,,,,,,,
{4},,,
{1},,,,,,,
{4},,7b/8b,1b/2b,1b/8b,,,4xb/8xb,
{8}2/7-5[8:1],2,2/7,2,2/8-4[8:1],2,
{384}2/8,C,,,
{96},,,,,
{48},
{6},
{4}4x^1[8:1]/5-1[8:1],4-8[8:1]/5x^8[8:1],4x/5,2b/6b,2b-5[8:1]/8b,
{8}2-8[8:1]/7-3[8:1],8,
{4}2/7-4[8:1],2/7,
{4}5bq1v6^8[4:1]*p1v4^2[4:1],,,2x/8x,
{8}3/6,2/7,
{4}1bh[4:9]/8b<8<8^7-5^4-2^1-7^6-4^3-1^8-5[1:2],,,
{1},
{8},,,,,,
{1}8-2-7-3-6-4-8[1:1],8w4[1:1],
{4},
{1},
{1},
E

Re:MASTER


  • EXPERT譜面を追加しました。修正等ありましたらよろしくお願いします。 -- Sugar (2026-06-30 19:57:02)
名前:
コメント:

タグ:

+ タグ編集
  • タグ:
最終更新:2026年06月30日 19:57