アットウィキロゴ

Secret Sleuth

アーティスト 島爺×蜂屋ななし

BPM BASIC ADVANCED EXPERT MASTER Re:MASTER
288 2 7 10+ 13 13+

EXPERT MASTER Re:MASTER
譜面制作者 Jack 某S氏 はっぴー

BASIC


ADVANCED


EXPERT

(288){2}1h[2:1],2h[2:1],3<6[2:1],,8h[2:1],7h[2:1],6>3[2:1],,1h[2:1],2h[2:1],3<6[2:1],,{8},2x/7x,,,,,,,{4}1,2,3,4,5/6,,2/8,,3,4,2/5,,4/3,,7/1,,6,5,7/4,,6<1[2:1],,4,,3>8[2:1],,5,,6,6,3,3,4>1[2:1]/5<8[2:1],,,,1/8,,2/4,,7,8,1/6,,1/8,,5/7,,2,1,3/8,,1/7<4[2:1],,3,,8/2>5[2:1],,6,,7,7,4,4,5,5,4/6,,

{4}3,4,5/3,,5,4-2[4:1]/6,,,4,5,6/4,,4,5-7[4:1]/3,,,5,4,2,3,8,7,4/6,,5-8[4:1],,4-1[4:1],,5-8[4:1],,1x,,4,5,3,4,5/7,5-3[4:1]/7,,,5,4,6,5,4/2,4-6[4:1]/2,,,4,5h[2:1],,3,2/4,5,4,3,2/4h[2:1],,5h[2:1],,7h[2:1],,2b,,

{2}4h[1:1],B2/B3,5h[1:1],B7/B6,E4,E5,E6,3/6,6>3[2:1],1,2q6[2:1],8,5h[2:1]/7,4h[2:1],2h[2:1],7,5h[1:1],B7/B6,4h[1:1],B2/B3,E6,E5,{4}E4,,4,4,3h[2:1],,5,5,6h[2:1],,3,3,4hx[4:1]/5hx[4:1],,3hx[4:1]/6hx[4:1],,2hx[4:1]/7hx[4:1],,4b/5b,,

{4}2x,1,3/8,7x,8,6/1,2,3/4,5,3/4,2,3/4,5,3-1[4:1]/4-8[4:1],,,{8}7h[8:3],,,6h[8:3],,,5,,2h[8:3],,,3h[8:3],,,4,,{4}4/5,3/6,2/7,1/8<5[4:1],,4h[2:1],,8b,7x,8,6/1,2x,1,3/8,7,6/5,4,6/5,7,6h[4:1]/5h[4:1],,2h[4:1]/4h[4:1],,3/7,,4,5,4,{8}2h[8:3]/7,,,3h[8:3],,,4,,{4}4/5,,3/6,,2/7,2/7,4h[4:1]/5h[4:1],,

{4}2,2,3/5,,7,7,6/4,,2/5,,7/4,,3,4,5/2,,E7/E6,,E3/E2,,E5/E4,,E1/E8,,6,6,4,4,5,5,3/4,,6,5,4/7,,7,8,1/6,,2,1,8/3,,6,5,4/7,,E3/E4,,E8/E7,,E6/E5,,E1/E2,,
3,3,5,5,4,4,5/6,,4h[2:1],,5,,6,6,5/7,,6h[2:1],,5,,3,4,2/5,,2h[2:1],,3,,6,5,4/7,,5<2[4:5]/2q4[4:5],,,,,,,,
5h[2:1],,4,,3,3,2/4,,3h[2:1],,4,,6,5,4/7,,7h[2:1],,6,,3,4,2/5,,7h[2:1]/4,,5h[2:1],,4h[2:1],,2h[2:1],,

{2}7<4[2:1],,1>4[2:1],,8<5[2:1],,2>5[2:1],,B6/B7/B8,,B3/B2/B1,,E5/E4/E6,,4/5,3/6,2/7,3/4,2/7,6/5,1/8,2/4,1/8,5/7,{8}1h[8:3],,,2h[8:3],,,3,,7h[8:3],,,6h[8:3],,,5,,3h[8:3],,,4h[8:3],,,5,,{4}4/5,,2b/7b,,

{4}7x,8,1/6,2x,1,8/3,7,5/6,4,5/6,7,5/6,4,6-8[4:1]/5-1[4:1],,,{8}2h[8:3],,,3h[8:3],,,4,,7h[8:3],,,6h[8:3],,,5,,{4}5/4,6/3,7/2,8/1>4[4:1],,5h[2:1],,1b,2x,1,3/8,7x,8,6/1,2,3/4,5,3/4,2,3h[4:1]/4h[4:1],,7h[4:1]/5h[4:1],,2/6,,5,4,5,{8}7h[8:3]/2,,,6h[8:3],,,5,,{4}5/4,,6/3,,7/2,7-4[4:1]/2-5[4:1],,,

{4}2,2,5,5,3,3,2/4,,7,7,4,4,6,6,7/5,,B4/E3,,B5/E7,,B1/E3,,B8/E7,,6,6,4,4,5,5,3,3,,
2/5,2h[4:1]/5h[4:1],,3h[4:1]/4h[4:1],,2h[4:1]/5h[4:1],,,7/4,7h[4:1]/4h[4:1],,6h[4:1]/5h[4:1],,7h[4:1]/4h[4:1],,,4/5,4h[4:1]/5h[4:1],,3h[4:1]/6h[4:1],,2h[4:1]/7h[4:1],,
E2,E8,E3,E7,E4,E6,E1,E5,2b/6b,E

MASTER

(288){1}7s3[4:5],E4,2z6[4:5],E6,7pp4[4:5],B3,2-6[4:1],{4}B7,B2,B5,B4,{12}6,,,4,,5,3,,,5,,4,6,,,4,,5,3,,,6,,5,7,,,3,,4,2,,,6,,5,7,,,3,,4,2,,,6,,5,7,,,4,,5,3,,,5,,4,6,,,3,,4,2,,,5,,4,6h[12:5],,,5,,5,,,6,5,,,{2}5/6,B3/E4/B4/B8/E8/B7,{12}6h[4:1],,,4,,5,3h[4:1],,,5,,4,6h[4:1],,,4,,5,3h[4:1],,,6,,5,7h[4:1],,,3,,4,2h[4:1],,,6,,5,7h[4:1],,,3,,4,2h[4:1],,,6,,5,7h[4:1],,,4,,5,3h[4:1],,,5,,4,6h[4:1],,,3,,4,2h[4:1],,,5,,4,{4}6,6,1/7,1/7,2,2,3/5,3/5,

{4}4h[1:1],6,,5,3<6[4:1],1,,,5h[1:1],3,,4,6>3[4:1],8,,,2h[2:1],4,7h[2:1],5,4,3<6[4:1],1,,7,6,5,1,{8}2,,3,3h[8:3],,,4,,{4}3/4,5,3/4,2,3/4,5-1[4:1],7,,6/5,4,6/5,7,6/5,4-8[4:1],2,,4,4-8[4:1],5,5-1[4:1],3,3-8[4:1],6,6-1[4:1],3,3>6[2:1],,,,,2b/7b,,

{2}2>5[4:1],8,7<4[4:1],1,6pp1[4:5]/2pp5[4:5],,,,{4}8,7,6,5,1,2,3,4q6[4:3],5h[4:3],,,,,2x/7x,,,{2}7<4[4:1],1,2>5[4:1],8,2V83[4:3]/6V47[4:3],,{4},,1,1,2/8,3/7,4/6,5,7/8,1/6,2/5,3>8[4:1],4,5<8[4:1],4,4>1[4:1],6,7,2b/8b,,

{4}2-5[4:1],E1,7-4[4:1],E1,2-5[4:1],E1,7-4[4:1],E1,2-5[4:1],E1,7-4[4:1],E1,2q5[2:1],8h[2:1],,,{12}7h[12:5],,,6,,6,,,4,5,,,2h[12:5],,,1,,1,,,4,5,,,{4}5/6,1/7,3/4,1/8,2q6[4:1]/7,8h[2:1],,1,7-4[4:1],E1,2-5[4:1],E1,7-4[4:1],E1,2-5[4:1],E1,7-4[4:1],E1,2-5[4:1],E1,7p4[2:1],1h[2:1],,,,3/4,2/5,1/6,{8}7/8h[8:3],,,1h[8:3],,,2qq7[2:3],,{1},,

{12}6,,5,6,,,5/7,,,4,,,3,,4,3,,,5h[4:1]/2h[4:1],,,,,,3,,4,3,,,4/2,,,5,,,6,,5,6,,,4h[4:1]/7h[4:1],,,,,,6,,5,6,,,5/7,,,4,,,3,,4,3,,,5/2h[4:9],,,,,,{4}B8,B1,B7,B2,B6,B3,B5,B4,{12}6,,5,6-4[4:1],,,1,,,2,,,3,,4,3-5[4:1],,,8,,,,,,7,,8,7-4[4:1],,,1,,,2,,,2,,1,2-5[4:1],,,8,,,,,,6,,5,6-2[4:1],,,4,,,3,,,3,,4,3-7[4:1],,,6h[4:9],,,,,,{4}B1,B8,B2,B7,B3,B6,B4,B5,

{4}2/4,3,7/5,6qq3[1:1],,,1,1,2,2-8[4:1],7,7-3[4:1],4,4-6[4:1],8,,7/5,6,2/4,3,7-2[4:1],3-6[4:1],,8,8pp3[4:3]*qq3[4:3],,,,,,E2/B1/B2/B7/E7/B6,,2/4,3,7/5,6>3[4:1],1,2-7[4:1],6-3[4:1],,2,2-8[4:1],7,6z2[2:1],2,1,1,8,7/5,6,2/4,3,4h[8:1]/6h[8:1],5h[8:1]/3h[8:1],4h[8:1]/6h[8:1],5h[8:1]/3h[8:1],{8}6,5,7,4,5,3,4,2,{4}8,2/7,3/6,4/5,

{1}4h[1:2],,5h[1:2],,{2}4,4,4,4,5,5,{4}4,4,5,5,{12}4,,5,4,,5,4,,5,4,,5,4,,5,4,,5,4,,5,4,,5,4,,5,4,,5,4,,5,4,,5,4,,5,4,,5,4,,,3/6,,,4,,5,4,,6,2,,7,2,,8,{16}1,2,3,4,5,6,7,8,1,2,3,4,5,6,7,8,{4}1x,1x-5[4:1],7x,7x-3[4:1],1x,1x,2b/8b,,

{4}8-4[4:1],B1,2-5[4:1],B1,8-4[4:1],B1,2-5[4:1],B1,8-4[4:1],B1,2-5[4:1],B1,7pp4[2:1],1h[2:1],,,{12}2h[12:5],,,3,,3,,,5,4,,,7h[12:5],,,8,,8,,,5,4,,,{4}4/3,8/2,6/5,8/1,7p3[4:1]/2,1h[2:1],,8,1-5[4:1],B8,7-4[4:1],B8,1-5[4:1],B8,7-4[4:1],B8,1-5[4:1],B8,7-4[4:1],B8,2qq5[2:1],8h[2:1],,,,6/5,7/4,8/3,{8}2/1h[8:3],,,8h[8:3],,,7pp2[2:3],,{1},,

{12}3,,4,3,,,6,,5,6,,,3,,4,3,,,E7/B7/B8/E1/Cf,,,,,,6,,5,6,,,3,,4,3,,,6,,5,6,,,E3/B2/B1/E1/Cf,,,,,,3,,4,3,,,6,,5,6,,,3,,4,2,,,6,,5,7-4[4:1],,,{4}2b,3-8[4:1],7b,6-1[4:1],3b,2-5[4:1],8b,7,6,6h[4:5],4,4,5,5,C/B1,,3,3h[4:5],5,5,4,4,C/B8,,7,7h[4:3],C/B1,,2,2h[2:5],C/B8,,B4,B5,B3,B6,B2,B7,B1,B8,Cf/B4/B5,E

Re:MASTER

(288){1},,,,,,,{4}E2,E3,E4,E5,4/6,3,3/7,7,5/7,5/7,4/6,4/6-3[4:1],2,1-4[4:1],8,7-4[4:1],3,2-5[4:1],8,8<5[4:1],4,4>1[4:1],5,5<8[4:1],1,1>4[4:1],8,8,5/7,5/7,4/6,4/6,5,4,3/5,6-3[4:1]/2-7[4:1],2x/6x,,1,8,7,7>2[4:1],3,4,3/5,2/6,1/7,8,1,2/8,3/7,4/6,5v7[4:1],2,1v3[4:1],6,5v7[4:1],2,1v3[4:1],6,7,7,4/6,4/6,3/5,3/5,4/6h[4:1],3,

{12}3/6,,4,5,,5,4,,4,5,,5,3,,3,6,,6,4,,4,5,,5,4,,4,5,,5,3,,3,6,,6,5,,5,8,,8,4,,4,6,,6,4,,4,5,,5,1,,1,4,,4,3,,3,5,,5,4,,4,6,,6,5,,5,7,,7,1,,1,8,,8,3,,3,6,,6,4,,4,5,,5,

{12}4,,4,5,,5,3,,3,6,,6,4,,4,5,,5,2,,2,5,,5,4,,4,5,,5,3,,3,7,,7,4,,4,5,,5,2,,2,6,,6,5,,5,4,,4,3,,3,2,,2,1,,1,8,,8,7,,7,6,,6,5,,5,3,,3,4,,4,5,,5,4,,,{4}3/6,3/6,2>8[1:1]/7,

{4}Cf,,,,,,,,1-4[4:3],,,,,5,5,,6>3[4:1],,,,3<6[4:1],,,,8-5[4:3],,,,,E4,,,3,3h[4:7],,4,,4,,4,5,6h[4:7],,5,,5,,5,4,3,3,4,5,6,6,5,4/5,,3/6,,4/5,3/6,{12}2/7,,8x,

{4}1x>5[4:1],5x<1[4:1],1x>7[8:3],5x<3[8:3],1x>7[8:3],5x<3[8:3],1x>7[8:3],5x<3[8:3],1x>7[8:3],5x<3[8:3],1x>7[8:3],5x<3[8:3],1x>7[8:3],5x<3[8:3],1x,5x,1x,6-8[4:1],1,3-1[4:1],8,5-7[4:1],1,4-2[4:1],8,8,3/7,2/6,1/5,8>3[4:1]/4<7[4:1],8x/4x,,8x,

{4}8x<4[4:1],4x>8[4:1],8x<2[8:3],4x>6[8:3],8x<2[8:3],4x>6[8:3],8x<2[8:3],4x>6[8:3],8x<2[8:3],4x>6[8:3],8x<2[8:3],4x>6[8:3],8x<2[8:3],4x>6[8:3],8x,4x,8x,4,3,2q6[4:1],{8}7,,,8<1[8:7],,,1x,,{4},,,,,,{12}4,5,4,5,,,

{4}3/6h[4:1],4,5/3h[4:1],5,4/6h[4:1],4qq5[2:1],7,7,6,6,5/3h[4:1],5,4-2[4:1],6,5-7[4:1],3,3h[4:1],5,4/6h[4:1],4,5/3h[4:1],5,4/6h[4:1],4x-2[8:1],5x-7[8:1],3x-1[8:1],6x-8[8:1],2x>1[4:3],7x,,,,2h[4:1]/5,6,7h[4:1]/4,3,2h[4:1]/5,6qq7[2:1],1,1,2,2,3/7h[4:1],4,3>1[4:1],5,6<8[4:1],1,1,2,3h[4:1]/8,7,6h[4:1]/1,2,3h[4:1]/8,7x-5[8:1],2x-4[8:1],8x-6[8:1],1x-3[8:1],7x-5[8:1],2x-4[8:1],8x-6[8:1],1,1b,

{4}2h[8:1]/8h[8:1],2h[8:1]/8h[8:1],1h[8:1]/7h[8:1],7h[8:1]/1h[8:1],{16}E2,E3,E4,E5,E6,E7,E8,E1,{4}E2,5hx[8:1],6h[8:1]/4h[8:1],6h[8:1]/4h[8:1],3h[8:1]/5h[8:1],3h[8:1]/5h[8:1],{8}6x,5,3x,4,7x,6,2x,3,{4}8h[8:1],7h[8:1]/1h[8:1],3h[8:1]/5h[8:1],2h[8:1]/6h[8:1],{8}5x,6,4x,3,6x,7,3x,2,{12}8x,7x,6x,5x,4x,3x,1x,2x,3x,4xq5[2:1],5x,6x,
{4},,,,1h[8:1]/8h[8:1],1h[8:1]/8h[8:1],2h[8:1]/7h[8:1],2h[8:1]/7h[8:1],1/8,2/7,E6/B5/B4/E4,2/7,6h[8:1]/3h[8:1],6h[8:1]/3h[8:1],5h[8:1]/4h[8:1],5h[8:1]/4h[8:1],{12}3x/6x,,3x/6x,{8}4x/5x,,3hx[4:1]/6hx[4:1],,,,{4}1h[8:1],2h[8:1]/8h[8:1],6h[8:1]/4h[8:1],7h[8:1]/3h[8:1],{8}4x,3,5x,6,3x,2,6x,7,{12}1,8,1,8,1,8,2,7,2,7,2,7,3,6,3,6,3,6,4,5,4,5,4,5,

{1}Cf,,,,,,,{4},3/6,3/6,,{12}4,,4,5,,5,4,,4,5,,5,4,,4,5,,5,4,,4,5,,5,4,,4,5,,5,4,,4,5,,5,4,,4,5,,5,4,,4,5,,5,3b,,3,6,,6,4,,4,5,,5,2b,,2,6,,6,4,,4,5,,5,1b,,1,6,,6,4,,4,5,,5,4,,4,6,,,{4}3b/7b,

{4}8x<4[4:1],4b>8[4:1],8x<8[2:1],Cf,8x<8[2:1],Cf,8x<8[2:1],Cf,8x<8[2:1],Cf,8x<8[2:1],Cf,8x<8[2:1],Cf,8x,4x,8x,3-1[4:1],8,6-8[4:1],1,4-2[4:1],8,5-7[4:1],1,1,2/6,3/7,4/8,5>2[4:1]/1<6[4:1],1x/5x,,1x>5[4:1],

{4}5b<1[4:1],1x>1[2:1],Cf,1x>1[2:1],Cf,1x>1[2:1],Cf,1x>1[2:1],Cf,1x>1[2:1],Cf,1x>1[2:1],Cf,1x,5x,1x,6x,E6,E5,E4,Ch[2:1],,,,2-4[8:1]/7-5[8:1],,1-5[8:1]/8-4[8:1],,8<5[8:1]/1>4[8:1],,{12}1,8,1,8,,,

{12}3,,3,6,,6,4,,4,5,,5,3,,3,4,,2,1,,7,8,,6,5,,5,7,,7,4,,4,6,,6,5,,7,8,,2,1,,3,4,,4,3,,3,5,,5,4,,4,6,,6,5,,5,7,,7,2,,2,6,,6,5,,5,6,,2,4,,7,5,,1,4,,8,5,,3,4,,4,2,,2,7,,,

{12}6,5,6,5,,,3,4,3,4,,,6,5,6,5,,,3,4,3,4,,,7,5,6,5,,,2,4,3,4,,,7,5,6,5,,,2,4,3,4,,,6,5,7,5,,,3,4,2,4,,,6,5,6,5,,,3,4,3,4,,7,8,,6,5,,2,1,,3,4,,,7,5,6,3,4,2,6,5,7,1b,E

  • Re:MASTER譜面を追加しました。修正等ありましたらよろしくお願いします。 -- Sugar (2026-02-26 14:59:23)
  • MASTER譜面を追加しました。修正等ありましたらよろしくお願いします。 -- Sugar (2026-02-26 23:21:24)
  • Re:MASTER譜面の一部ノーツのリズム修正を行いました。追加修正等ありましたらよろしくお願いします。 -- Sugar (2026-02-27 20:45:58)
  • EXPERT譜面を追加しました。修正等ありましたらよろしくお願いします。 -- Sugar (2026-03-08 21:54:36)
名前:
コメント:

タグ:

+ タグ編集
  • タグ:
最終更新:2026年04月12日 09:03