アットウィキロゴ

バベル

アーティスト いよわ feat.重音テト

BPM BASIC ADVANCED EXPERT MASTER Re:MASTER
225 4 7+ 10 13+ -

EXPERT MASTER Re:MASTER
譜面制作者 アマリリス サファ太 -

BASIC


ADVANCED


EXPERT

(225){1},,
{2}3h[2:3],4,2,4,6h[2:3],5,7,5,3h[2:3],4,2,5,{4}6,6,5,5,{1}7-3[4:1],{4}2,2,1,1,3h[4:1]/4h[4:1],,3h[4:1]/4h[4:1],,6,6,5,5,7h[4:1]/8h[4:1],,7h[4:1]/8h[4:1],,2h[2:1],1,1,,7h[2:1],8,8,,6,5,34,,1x/2x,1x/2x,3x/8x,,7,7,8,8,5h[4:1]/6h[4:1],,5h[4:1]/6h[4:1],,3,3,4,4,1h[4:1]/2h[4:1],,1h[4:1]/2h[4:1],,7h[2:1],8,8,,2h[2:1],1,1,,45,45,36,,{1}1-4[4:1]/8-5[4:1],
{4}2h[2:1],,3h[2:1],,4,4,35,,7h[2:1],,6h[2:1],,5,5,46,,2h[2:1],,4,,35,4,56,,7h[2:1],,5,,46,37,28,,3h[2:1],,1,1,2,,78,,6h[2:1],,8,8,7,,12,,3h[2:1],,5,5,2-6[4:1],,7x,,8-4[4:1],,3x,,1x,1x,2b/8b,,
{1}6<3[4:13],,,,{2}45,6h[2:1],5h[2:1],4h[2:1],{1}3p6[4:5],,{2}7h[2:3],5-8[4:3],,,2h[2:3],4-1[4:3],,,7h[2:3],8-5[4:3],,,46,35,{4}46,46,1b/8b,,
{8}2,2,{4}1,34,5,6-2[8:1],,3-7[8:1],,{8}6,6,{4}5,78,1,2-6[8:1],,8-4[8:1],,3,3,12,78,6,6,78,12,3,4,5,6,7x/8x,7x/8x,1x/6x,,{8}7,7,{4}8,56,4,3-7[8:1],,6-2[8:1],,{8}3,3,{4}4,12,8,7-3[8:1],,1-5[8:1],,6,6,78,12,3,3,12,78,6,5,4,3,1bx/2bx,1bx-6[8:1]/2bx-5[8:1],,,
{8}4x/7x,,6x,6xh[4:1],,5x,{4}5x,7h[2:1],5,4,,{1}6h[2:1]/2-5[4:1],3h[2:1]/7-4[4:1],{8}2x/5x,,3x,3xh[4:1],,4x,{4}4x,2h[2:1],4,5,,3x/7x,46,3x/7x,,8h[2:1]/2>6[8:3],,,,7,78,6h[1:1],,5,,8,,2,12,3h[1:1],,4,,1,,{4}7,78,6h[1:1],,5,5,4,,27,2>4[4:1]/7<5[4:1],,,{1}2bh[2:1]/7bh[2:1],
{1}C1h[1:4],,,,{2},B6/B7/E7,B4/B5/E5,B2/B3/E3,{1}1x<5[4:5]*>5[4:5],,{2}7xh[2:3],E8,B6,A5,2xh[2:3],E2,B3,A4,7xh[2:3],E6,B7,A8,16,38,{4}18,18,2b/7b,,
{8}2,2,{4}1,38,47,6>3[8:1],,2<7[8:1],,{8}6,6,{4}5,47,38,2>5[8:1],,6<1[8:1],,3h[4:1],2h[4:1],1h[4:1],8h[4:1],7,,56,56,34,34,1<6[4:1]/2>5[4:1],,,,36,,{8}7,7,{4}8,16,25,3<6[8:1],,7>2[8:1],,{8}3,3,{4}4,25,16,7<4[8:1],,3>8[8:1],,{1}7xV53[8:3],{4}2x/4x,24,57,57,18,18,34,34,56,56,1b/8b,,
3x,45,6h[2:1],,{8}8,8,7,,1,1,{4}8,1x/2x-4[8:1],,5,,{8}2,2,1,,7,7,{4}8,6x,45,3h[2:1],,{8}1,1,2,,8,8,{4}1,5x/2x-5[8:1],,7x-4[8:1],,{1}1xw5[4:1],
{4}7xh[4:7],5,,5,,5,,5,3xh[4:7],5,,5,,5,,5,6xh[4:7],5,,5,,5,,5,4xh[4:3],5,,5,3/6,3/6-3[8:1],{1},,,,,,,,
E

MASTER

(225){1},,
{8}5,5,5,,3,4,5,,{2}4h[4:1]/6h[8:1],3h[8:1]/5h[4:1],{8}5,5,5,,3,4,5,,{2}5h[8:1]/7h[4:1],2h[4:1]/4h[8:1],{8}5,5,5,,3,4,5,,{2}4h[8:1]/6h[4:1],3h[4:1]/5h[8:1],{8}5,5,5,,3,4,5,,5,4,5,36,,E4/E6/B4/B5,,,
{4}2b-5[8:1],28,{8}6,6,5,7,{4}2>4[8:1],5,6<8[8:1],4,2-5[8:1],12,{8}6,6,5,7,{4}1-3[8:1]*-5[8:1],,8-4[8:1]*-6[8:1],,3bx/5bx,4h[4:1]/6,{8}5,4,{4}6,5/7-3[8:1],4-1<8-5[2:1],5x,6x,7xh[4:1],5,3/4-8[8:1],2,1>4b[8:1]*<6b[8:1],,2bx/8bx,,7b-4[8:1],17,{8}3,3,4,2,{4}6<8[8:1],4,2>4[8:1],8,6-1[8:1],46,{8}3,3,4,2,{4}8-4[8:1]*<6[8:1],,1>3[8:1]*-5[8:1],,2bx/6bx,3/5h[4:1],{8}4,5,{4}3,2-6[8:1]/4,5-7>1[4:1],4x,3x,2h[4:1],4,{8}6,6,{4}5/7-4[8:1],3-8[8:1],8q4[8:1],6b,,
35,35,46,4-8[4:1]/6,5,5,6/8h[4:1],6,5/8-4[4:1],5,6,46,56,78,12,3/4-1[4:1],2,2,13,1p5[4:1]/3,4,3,24,3/5-8-4[2:1],4,4,3,2-6[8:1]/5,4-8[8:1],1,17,,2b/6b,{8}3,3,{4}35,4/6-4[8:1],2v5[8:1],8,8,46,7h[4:1],{8}5,5,{4}56,3/4<6[8:1],2-4[8:1],8,8,57,35,{8}2,2,{4}24,3<6[4:1]/5,7,8,8qq8[8:3],4,4,{8}3,3,3-8[8:1],,6,,17,17,{4}17,3b/5b,,
6,6<2[2:3],,{8},4h[8:5],{4},,,,3,3>7[2:3],,{8},5h[8:5],{4},,,,6,6h[1:2],,{8},E6/B6,{4},,E4/B3,,2,2h[4:5],,{8},Ch[8:9],{4},,,,1x,1x>4>1[2:3],,{8},E5/B4/B5,{4},,,,7,7<4<7[2:3],,{8},E4/B3/B4,{4},,,,2,{4}2>5>2[2:3],,{8},E6/B5/B6,{4},,,,1h[4:3],,{8},2,2,,12,,34,,{16}4,5,4,5,{8}4,,
2b>5[8:1]/8,,28,,7,6,4,3,{4}2-4[8:1],8,6-8[8:1],4,3v8[8:1],38,{8}7,6,4,3,{4}1-4[8:1]/2v4[8:1],,7v5[8:1]/8-5[8:1],,1b/8b,{8}7,7,{4}5-1[8:1],6>3[8:1],2h[4:1],8,{8}27,36,4-1[8:1]*-7[8:1]/5,,,,2x/6x,,3,4,5,6,{4}7-3[8:1]/8,1>4[8:1]*<6[8:1],1bx,,6v1[8:1],56,{8}4,3,8,7,{4}6-4[8:1],1,3-1[8:1],5,6v1[8:1],16,{8}2,3,5,6,{4}7v4[8:1]/8-5[8:1],,1-4[8:1]/2v5[8:1],,1b/8b,{8}2,2,{4}4-8[8:1],3<6[8:1],7-3[8:1],1,{8}2,2,{4}34,5/6<1[8:1],26,{8}3,3,{4}7-3[8:1],78,1-4[8:1]*<7[8:1],1bx,,
4/7h[4:1],{8}5,5h[8:5],{32},,E7,B6,,,,,{4},7h[4:3],{32}B5,E6,,,,,,,E7,D7,,,{8},1x,,2,2,4,4,3,4,5,6,{32}7h[4:1]/B4,E5,,,{8},,,{6}1x,2x/8x,3x/7x,{32}6h[4:3]/B4,E5,,,{8},,E7/B6,{4},8>4[4:1],7,7,{16}8x,,,1x/7x,,,{8}2x/6x,2x/6x,,45,,28,{4}2/8-4[8:1],1h[8:5],,{8},{6}4,35,3x/5x,{16}6bx,5x,,,7,8,,,2,1,,,3,4,{8},45,6,7h[8:1],5,4h[8:1],6,57,,{16}7b,8,,,2,1,,,3,4,,,6,5,{8},45,3,2h[8:1],4,5h[8:1],3,{4}24,3h[16:3]/5h[8:1],3h[16:3]/5h[8:1],3h[16:3]/5h[8:1],3h[16:3]/5h[8:1],4h[8:1]/6h[16:3],4h[8:1]/6h[16:3],4h[8:1]/6h[16:3],4h[8:1]/6h[16:3],3x/7x,{8}4,3,2h[4:1],,3,4,25,2h[16:1]/5h[16:1],,1b/6b,{4}1b/6b,7<2>7[1:4],
{1}Cf,,1h[8:7],,Ch[8:7],{2}E7,E1,E3/8h[8:7],,Ch[1:1],,6<3V17[4:15],,,,4,4,4,4,{8}5,,6,,7,{4}7V14-6[8:7],{8}4h[8:7],{1},{4}5/7h[4:3],,{8},6,6,,67,,56,,{16}5,4,5,4,{4}6,
2bv5[8:1]/8b,12,{8}6,7,1,2,{4}3-1[8:1],5,3>8[8:1],6,7v4[8:1],78,{8}3,2,8,7,{4}5v8[8:1]/6v1[8:1],,3v8[8:1]/4v1[8:1],,2b/6b,5/7h[4:1],8-4[8:1],7>2[8:1],3<6[8:1],6,{8}7,7,
{4}1<8-5[8:1]/8>1-4[8:1],,3x/6x,{8}2,1,8,7,{4}5/6-2[8:1],4>1[8:1]*<7[8:1],4bx,,4/7bv4[8:1],17,{8}3,2,8,7,{4}6<8[8:1],4,6<1[8:1],4,2v5[8:1],12,{8}6,7,1,2,{2}3v1[8:1]/4v7[8:1],5v2[8:1]/6v8[8:1],{8}34,1b/5b,{4},5-1[8:1]/7,6>3[8:1],2<7[8:1],7,{8}6,6,{4}5/7-5[8:1],3>8[8:1],8,{8}5,6,{4}7-3[8:1],1-5[8:1]/7,1/8w4[8:1],8bx,,
1-5-3[4:1],8,1-5-7[4:1],3,1-5-3[4:1],8,{8}7,7,{4}37,8-4-6[4:1],1,8-4-2[4:1],6,8-4-6[4:1],1,{8}2,2,{4}26,4-8-2[4:1],5,4-8-6[4:1],3,5-1-3[4:1],7,5-1-7[4:1],3,6-2-4[4:1],8,7h[4:1],5h[4:1],3h[4:1],1h[4:1],7,7<2V46[8:15]/8,
{1}B4f/C,{4}1h[2:1],,,2>7V53[8:15],,,,,8h[2:1],,,6<3V17[8:15],,,,,4h[2:1],,,3>2-8<7[1:1],,,,,6,4-1[8:1]/5-8[8:1],{1}E4/E6/B4/B5,,,,,,,,
E

Re:MASTER


名前:
コメント:

タグ:

+ タグ編集
  • タグ:
最終更新:2026年02月26日 23:21