| アーティスト |
SUGAR RUSH「ブルーアーカイブ -Blue Archive-」 |
BASIC
ADVANCED
EXPERT
(180)
{4}B3,E2,,B6,
{4}E8,,C,E5,
{4}E6,B7,,2,
{4}3,4^1[8:3],{2},
{4}B6,E8,,B3,
{4}E2,,C,E5,
{4}E4,B2,,5,
{4}6,5-2[4:1]/6h[4:1],{2},
{8}2x,2x,4,4,{4}3h[4:1],1h[4:1],
{4}8h[4:1],6h[4:1],4,56,
{8}7,7,5,5,{4}6h[4:1],8h[4:1],
{4}1h[4:1],3h[4:1],5,34,
{8}2,2,4,4,{4}3h[4:1],1h[4:1],
{4}8h[4:1],6h[4:1],{8}4,4,{4}5,
{4}E7,E6,,E4,
{4}E3,{8},1x/8x,{4}1x/8x,
{4}2h[4:1],4,6h[4:1],{8}5,5,
{8},78,,12,,34,{4}34,
{4}2h[4:1],4h[4:1],5h[4:1],7,
{4}18,{8}7,7h[4:1],,5,{4}5,
{8}35,35,,46,{2}4q5[4:3]/6h[1:1],
{1},
{4}8,1V35[4:3]*V75[4:3],{2},
{2},{4},5,
{2}6^3[4:1],{4},{8}1,1h[4:1],
{8},3,,5,{4},{8},7,
{4}7h[4:1],5,3,{8}1,1<5[8:3],
{2},{4},{8},2,
{4}2h[4:1],4,6,{8}8,8>4[8:3],
{1},
{4}2,24,{8}6,6,{4}56,
{4}7,57,{8}3,3,{4}34,
{4}2,12,{8}7,7,{4}78,
{4}6,78,{8}2,2,{4}12,
{4}3,45,{8}6,6,{4}56,
{4}3,34,{8}2,2,{4}1>6[8:5]/2,
{1},
{2}2h[4:1]/7h[4:1],{8}36,{16}4x,5x,{4}4x,
{4}2bx/8bx,{8},37,{2}37,
{2}1^4[4:1],8^5[4:1],
{4}3,{8},24,{4}24,6,
{2}7-4[4:1],3-8[4:1],
{4}7,57,2,24,
{4}5,68,4,13,
{1}8b-3-7-4[4:3],
{2},2h[4:1]/6-3[8:1]b,
{4}1x,78,{2}5q2[4:1]/6^1[4:1],
{4},3x/4x,25,56,
{4}78,12,{2}3^8[4:1]/4^7[4:1],
{4},{8}1x/6x,1x/6x,{4},24,
{4}45,57,{2}7^4[4:1]/8v3[4:1],
{4},{8}2,2,{4}4,{8}7,7,
{4}5,18,24,7bxh[4:1],
{4}5bx,2bx/4bx,1bx/8bx,12,
{4}34,56,{2}7^4[4:1]/8p3[4:1],
{4},{8}1x/2x,1x/2x,{4},78,
{4}56,4,{2}3^8[4:1]/7^4[4:1],
{4},{8}1x/5x,1x/5x,,37,{4}37,
{2}8b<4[8:3],{4},2,
{2}1>5[8:3],{4},8,
{4}7,5w1[8:3]b/6,{2},
{4},{8}2x/8x,2xh[8:3]/8xh[8:3],{2},
{8}46,46,,35,{2}3/5-1[4:1],
{4},1x^4[4:1]/8x^5[4:1],{2},
{8},3,4,5,4,5,,3b/6b<3[8:11],
{1},
{1},
{1}1bx,
E
MASTER
(180){4},,,,
{1}8-5[4:3]/1v4[4:3],
{4},,7/3,8/2,
{1}2v5[4:3]/8v5[4:3],
{4},,7/3,2/6,
{1}1-4-8[4:3]/5-8-4[4:3],
{4},,2/6,7/3,
{1}8/4-1-6[4:3]*v6[4:3],
{24},,,,,,,,,,,,4/B5,B6,E7,A7,,,,,,,,,,,,
{8}6,
{8}5,3,2,2h[8:1],4,4h[8:1],
{8}5,5h[8:1],7,7h[8:1],8,1,2,2/8,,3,4,6,7,7h[8:1],5,5h[8:1],
{8}4,4h[8:1],2,2h[8:1],1,8,7,7/1,,7,8,2,3,3h[8:1],1,1h[8:1],
{8}8,8h[8:1],6,6h[8:1],5,4,3,3/5,,
{8}A2,B3,E5,E7,A5,,E1,C,E5,,2bx/7bx,
{4}7bx/2bx,
{8}6,7,
{4}8/2,3-5[8:1],
{8}6,6,,7,
{8}6,5/3,,2,1,8,
{4}8/7,
{4}7/5,
{8}5/4,3,
{4}2/4,2>5[8:1],
{8}8,8,,7,
{4}4/6-2[8:1],
{8}4/6x,3-7[8:1],,7/3x,
{4}8-5b[8:1],
{2}8b/1bh[4:3],
{8},,B3,E5,
{4}A5,6,6h[2:3],5,5,4,
{4}4,5,5,8/7,
{4}1/2,3/4,5/6,7>1[4:1],1>3[4:1],3,,1h[1:1],
{4}4,5,7,8,2/1,3/4,6/5-3-6-2[8:5],7x,
{4}6x,5xw1[4:1],
{8},,,,,,5,5,
{4}6/4,
{8}2,1/8,7,6,
{4}5/6,
{8}7,7>2[8:1],,2,,
{8}3,4/5,6,7,1,
{4}2/8h[4:1],
{8}4,4,
{4}3>8[8:1],
{8}5,5,
{4}6<1[8:1],
{8}4,4,
{4}4-8[8:1],8,1/6,
{8}8/7,6,5/4,3,2/1,3/8,,4-8[8:1],
{8},4/7-3[8:1],,7/3p6[2:1]*>6[2:1],,,,,,,,,
{4}4/5,4-2[8:1]/5-7[8:1],
{8},,2x/7x,
{16}1,8,1,8,
{8}1,
{4}3bq5[8:3],
{8},8,
{4}8-4[8:1],8x,3q5[8:3],
{8},8,
{4}8-4[8:1],8x,3q5[8:3],
{8},8,
{4}8-4[8:1],8x,5w1[4:1],,,3b/7b,2/1,
{8}6,6,5/4,3,
{4}2/4,1/8,
{8}3,3,4/5,6,
{4}5/7,1/8,
{8}1/8,7/2,3/6,4-1[8:1]/5-8[8:1],6/3,4b/5b,,,,,
{4}1/7,
{48}8b/D3f,A3,D4,A4,D5,A5,
{8}D6,
{4}7h[4:1],8,6/8>5[4:1],8x/5,6w2[8:1],,
{4}4/8,3/1-6[8:1],1-4[8:1],1-5[8:1],1<4[4:1],
{2}1x,
{8}2/1,2b/1b,,,
{4}8/7h[2:1],1,8,
{8}5/6,3/4,
{4}1/2h[2:1],8,1,
{8}3/4,5/6,
{4}7/8,
{8}6,5/4,3/4,
{16}2,1,
{8}3,
{16}7,8,
{4}5x>2[8:1]*<8[8:1],5bxw1[8:1],5bx,3b/7b,
{16}3,4,3,4,
{4}1/5,1/8,6/5-3-8[4:1],7,7,
{8}1/6,6/1,
{4}2/5,4-1[8:1],4-7[8:1],4-8[8:1],4pp1[2:1],
{2}4x,
{8}8,8,,1/7,
{4}7/1,5h[4:1]/6h[4:1],
{8},5/6,
{4}5/6-3[8:1],6,2h[4:1],4-1[8:1],4/2,,3h[4:1]/4h[4:1],
{8},4/3,
{4}4/3qq5[2:1],
{2}3,
{8}7,7,
{4}6/4,8/7-4[8:1],
{8}7b/1b,3-6[8:1],,3b/5b,
{4}8>5b[4:1],
{2}5b/8b,
{16},,6,6,
{8}5x,4/7,
{4}7/4,
{8}6h[8:1],5h[8:1],4h[8:1],3h[8:1],2h[8:1],1>4[8:1],
{8},
{24}15,6,7,
{4}8xpp5[2:3],,,,,,,
{2}4-1b[4:1],
E
Re:MASTER
最終更新:2026年06月21日 15:54