アットウィキロゴ

Alice in 冷凍庫

アーティスト Orangestar

BPM BASIC ADVANCED EXPERT MASTER Re:MASTER
176 3 6 9+ 12+ -

EXPERT MASTER Re:MASTER
譜面制作者 はっぴー Jack -

BASIC


ADVANCED


EXPERT


MASTER

(176)
{8}3h[4:8],,,,,,,E4,,C,,E8,,,6,,
{8}6h[4:8],,,,,,,E2,,C,,E6,,,4,,
{8}4h[4:8],,,,,,,E7,,C,,E3,,,5,,
{8}5h[8:7],,,,,,,4,,E3,E7,E4,E6,1/8,2x/7x,,
{8}3-5[8:1],6,6,,7,5,7,3,6,5,6,1,5,3,2/4,,
{8}7-5[8:1],3,3,,2,4,2,6,3,4,3,8,4,6,7/5,,
{8}2-4[8:1],6,6,,7,5,7,3,6,5,6,1,5,3,2/4,,
{8}6-4[8:1],3,3,,2,4,2,6,3,4,3,8,4,6,7/5,
{8}4,4h[4:2],,,3,3h[4:2],,,2,2^7[4:1],,7^4[4:1],,4,,,
{8}8,8h[4:1],,2h[4:1],,5,6,7h[4:1],,5,4,3h[4:1]/6-4[8:1],,,,,
{8}5,5h[4:2],,,6,6h[4:2],,,7,7^2[4:1],,2^5[4:1],,5,,,
{8}1,1h[4:1],,7h[4:1],,3h[4:1],,5,5,3-5[8:1],,7-1[8:1],,2-6[8:1],,6-2[8:1],,
{8}8b,,8,5,7/5h[4:1],,7,3,6/3h[4:1],,6^3[8:1],1,1h[4:1],,8x,2/7,
{4}6/3^6[8:1],6^1[4:1],1^4[4:1],4,
{8}6,7,8-4[8:1],,,,6x,2,5/2h[4:1],,
{8}5,4,7/4h[4:1],,7,6,3/6h[4:1],,3^6[8:1],8,8h[4:1],,1x,6,
{8}8-4[8:1]/4-2[8:1],,,,1-5[8:1]/5-7[8:1],,,,4/8-4[8:1],,1-5[8:1],,6<3[4:1],,4,,
(215)
{8}4h[8:3],,,6h[4:1],,5,6,,5/7,,4/6,,
{8}5/3h[8:3],,,5h[4:1],,4,5,,4/6,,3/5,,
{8}4/2h[8:3],,,4h[4:1],,3,4,,3/5,,2/4,,
{8}5/1h[8:3],,,8h[4:1],,1,8,,2/7,,3/6,,
{8}4/5h[8:3],,,3h[4:1],,4,3,,2/4,,3/5,,
{8}4/6h[8:3],,,4h[4:1],,5,4,,3/5,,4/6,,
{8}5/7h[8:3],,,5h[4:1],,6,5,,4/6,,5/7,,
{4}4x/8h[4:2],4x,
(176)
{4}4x,1/5,Chf[4:3],,,,,,
{8},E8,,E7,,E6,,E5,,3,3,4,5,6,,4,5,
{8}E2,,E3,,E4,,E5,,6,6,5,4,3,,5,4,
{8}E8,,E7,,E6,,E5,,3,3,4,5,6,,4,5,
{8}E2,,E3,,E4,,E5,,6,6-1[8:1],,
{8}2b,,3,,3,E8,3,E7,3,E6,3,E5,3,E1,3-5[8:1],,
{8}6,,6,,6,E2,6,E3,6,E4,6,E5,6,E1,6-3[8:1],,
{8}2,,2,,2,E8,2,E7,2,E6,2,E5,2,E1,2-6[8:1],,
{8}8,,7-3[8:1],,1,,2,3,4/5,6,7,8/2,
{16}3,4,3,,
{8}1b/7hx[8:7],,6,5,4,3,2,1^4[8:1],,
{8}6^1[8:1],6,3^6[8:1],3,8>3[8:1],8,5-1[8:1],,
{8}7h[8:3],,,8,1/7,2/6,5/3^8[8:1],,
{8}6-3[8:1],6,2-7[8:1],2,5p3[8:3],5,1h[8:3],,
{4},,2-4[8:1]/4-8[8:1],2-6[8:1],7h[4:1],
{8}5,4,3/6,2/7,8/1h[4:1],,3,4/2-6[8:1],,8x,,5/7,
{8}6h[8:1],4,2h[8:1],6,8h[8:1],6,4h[4:1],6,
{16}8x,1x,8x<1[8:3],,,,
{4}8b/Cf/B5/B4,,
{8}3/7,3h[4:1]/7,,4-8[8:1],4,2-5[8:1],2,6-1[8:1],6,3>6[8:3],,
{8}8,8h[4:1],,,8,1/7,2h[4:1]/6,,4,4h[4:1],3,2,1,8,7,
{8}5-2[8:1]/6-1[8:1],,5x/6x,,,7,8,1/6h[4:1],,5,6,4/7,3,2q5[8:3],1,8h[8:3],,,,,,
{8}2/7,3/6,4>1[8:1]/5^8[8:1],,4x/5x,,2/7,3,4,
{16}6,5,6,,
{8}8b/2hx[8:7],,3,4,5,6,7,8^5[8:1],,
{8}3^8[8:1],3,6^3[8:1],6,1<6[8:1],1,4-8[8:1],,
{8}2,2h[4:1],,1,2/8,3/7,4/6q3[8:1],,2,2hx[4:1],,4q6[8:3],,1,1h[8:3],,,,,,
{4}7-5[8:1]/5-1[8:1],7-3[8:1],2h[4:1],
{8}4,5,3/6,2/7,1pp1[8:3]/8qq8[8:3],,,,,,
{8}2/7,3/6,4h[8:1]/5h[8:1],,7h[8:1],5,2h[8:1],4,6h[8:1],5,
{16}1x,8x,1x>8[8:3],,,,
{4}1b/Cf/B5/B4,,
{8}6/2,6h[4:1]/2,,5-1[8:1],5,7-4[8:1],7,3-8[8:1],3,6<3[8:3],,
{8}1,1h[4:1],,,1,8/2,7h[4:1]/3,,3,6/2h[8:3],5,4,3pp6[4:2],1,1h[8:3],,,,,,
{8}7/8,1/6,2/5-8[8:1],,4-1[8:1],,5,6,7,8qq5[4:2],8,,4,4h[4:1],,,
{8}1x-6[8:1]/2x-5[8:1],3x/8x,,,8x-3[8:1]/7x-4[8:1],6x/1x,,,4xq5[8:15]/5x<4[8:15],3x/6x,
E

Re:MASTER


名前:
コメント:

タグ:

+ タグ編集
  • タグ:
最終更新:2026年02月28日 00:15