BASIC
ADVANCED
EXPERT
MASTER
(130)
{24}E3,B3,B4,B5,,,
{16}7-3[8:1],,,,1/7,,,,2/4,,,5/4,,,
{8}7/5,,8,8-4[8:1],,3>8[8:1],,5,,
{8}1,2,3/4,3/4,8,7,6/5,,8/7,6,5/4,3,1/2,,7b/3b,,
{16}2,,2/4,,,5,4,,7,,7/5,,,4,5,,2,,2/4,,,5,4,,7,,7/5,,,4,5,,
{16}2,,3/4,,,5,4,,7,,6/5,,,4,5,,2,,3/4,,,5,4,,
{4}7<4[8:1],3,2h[4:3],
{8}4,4,3,3,4,5,6,6h[8:3],4,4,5,6x/4x,6x/4x,,7,7h[8:5],5,5,6,6,5,5,6/4,6/4,5/3,5/3,
{4}6x/2>6[4:1],7,8h[4:1],1-3[8:1],7-5[8:1],8-4[8:1],6,7<3[4:1],3x,
{8}1x,1x,4x,4x,3xh[4:1],,5x,6x,7x/4x>1[8:1],,8<5[8:1],,,2x,2x,5,
{8}6/4,3,2h[8:1]/4h[8:1],,5,6,7/5,4,5/3,6,7h[8:1]/5h[8:1],,4,4,5/3,5/3,1/7,7/1,2/6,,
{16}1/3,,,6/8,,,8x/1x,,
{4}8x/1x,1b<6[8:1]/2b>5[8:1],1/2-6[8:1],2/8h[4:1],
{8}5,5,7/4,3,2>5[8:1],2,6<1[8:1],6,3,3,8/2,8/2,,1-5[8:1]/2-5[8:1],8,,,
{8}6>3[8:1],7,1h[4:1],,4,2>4[8:1]/5<8[8:1],1,,,
{4}7x/4x,6h[8:1]/5h[8:1],4h[8:1]/3h[8:1],
{8}2q6[8:1],2,8qq5[8:3],8,4,3,2,1h[4:1],,
{8}4,4,2,2,8,8,5,5,7/6,7/6,,7<4[8:1]/8p3[8:1],,,,
{4}1b/2b,8>3[8:1]/7<4[8:1],8/7-3[8:1],7/2h[4:1],
{8}1,8,7/3,6,5<8[8:1],5,1>4[8:1],1,6,6,7/1,7/1,,
{8}2v5[8:1]/8v5[8:1],1,,,3<6[8:1],2,8h[4:1],,5,4>1[8:1]/7<5[8:1],8,,,
{4}2x/5x,3h[8:1]/4h[8:1],6h[8:1]/5h[8:1],
{8}7p3[8:1],7,1pp4[8:3],1,5,6,7,8h[4:1],,6,6,,7/5,6/4,5/3,4/2,,3,
{4}1-5[8:1]/2>5[8:1],2/1,8-4[8:1]/7<4[8:1],7/8,2b,
{16}2,1,,6,5,,7,8,,3,4,,
{8}2/5,5/2,2/4,5/4,
{4}7h[16:3]/5-1[8:1],,2b/8b ,
{4}3h[1:2],,E4,E3,E2,E8,E7,E6,6h[1:2],,E6,E7,E8,E2,E3,E4,
{4}3h[4:3],4,2,1-6[8:1],1>3[8:1],1-5[8:1],1-4[8:1],1,
{4}5h[4:1]/7h[4:1],,4h[4:1]/2h[4:1],,4h[8:1]/6h[8:1],5h[8:1]/3h[8:1],
{12}6,6,6,4,4,4,5/3,,,
{8}6,6,8,8,5,,1/7,,6<2[4:1],6,3,,4,4,1,1,3h[4:1],,8,7,6/1>4[8:1],,5<8[8:1],,,
{8}3x,3x,8,7/1,2,3/1,3/1,8,7,8/6,1,2/8,7,8/6,8/6,1,1,2/8,8/2,6/4,6/4,7/3,7/3,
{16}7/3,,,8,1pp3[8:1]b*qq7[8:1]b,,1,,
{4},6x/4x>7[4:1],7>4[4:1],4>7[4:1],7>4[4:1],5,
{8}6,6V42[4:1],,2V86[4:1],,6,,4,,
{8}2-6[8:1],2h[4:1],,,7-3[8:1],7h[4:1],,,1>4[8:1],1,8<5[8:1],8,2,
{4}1b,2h[8:1]/4h[8:1],5h[8:1]/7h[8:1],
{8}4,4,5s1[8:3]b,5,3,3,,2h[4:1],,8,
{4}8<4[4:1],4>8[4:1],8,
{8}4,3,1q8[4:1]/2>8[4:1],,,,,1x/2x,
{4}2x/1x,3x/5x<2[4:1],2<5[4:1],5<2[4:1],2<5[4:1],4,
{8}3,3V57[4:1],,7V53[4:1],,1,,1,,6<1[8:1],6h[4:1],,,3>8[8:1],3h[4:1],,,
{8}7<4[8:1],7,8>3[8:1],8,6,
{4}7b,8h[8:1]/7h[8:1],2h[8:1]/1h[8:1],
{8}3,4,5/6,7,8b/7b,6b/5b,4b/3b,2b/1b,,3/4,
{4}2/5-1[8:1],3-7[8:1],6-2[8:1],4-1[8:1],7,7>2[8:1]/8<5[8:1],,2<7[8:1]/1>4[8:1],,
{4}7/8h[8:3],7,5/6h[8:3],5,3/4h[8:3],3,1/2h[8:3],1,1/8-4[8:1],8/3,
{8}2,4,
{4}6/5>1[4:1],,4<8[4:1],,2b,3h[4:1]/1h[4:1],,
{16}7/5,,,2/4,,,7/5,, ,,8,,
{4}8<5[8:1],3>8[8:1],5,
{8}6,6,8/7,7/8,3,3,2/1,1/2,4/3,6/5,8/7,2/1,4/3,6/5,8/7,2/1,3x,,5x,
{16},4/6,6/4>5[4:13],,,,
{4}E7f,7bh[8:31],
{1},,,
{8},,,,,
{24}4,6,3,5,
E
Re:MASTER
最終更新:2026年03月01日 02:17