| アーティスト |
あやぽんず* feat.ビートまりお × まろん |
BASIC
ADVANCED
EXPERT
MASTER
(172){2}
5h[2:1],{16}4,5,4,5,3,6,3,,
{1}1xh[16:29]/8x-4[16:25],,
{4},1bx/5bx,,{16},,,Cfh[16:11],{8},,,,,8bx,,,
,,{16},8xV24[4:1]*V64[4:1],,,,,,,,,,Cf/B2/B6,{2},7h[4:1]/8h[4:1],
1h[4:1]/2h[4:1],{8}8,8,1,1,{16}8,1,8,1,8,1,8,1,8bx,,,1bx/7bx,,,2bx/6bx,,
2,4,3,5,4,5,3,4,2h[16:3],,,1,,,48,,7,5,6,4,5,4,6,5,7h[16:3],,,8,,,15,,
2,4,3,5,4,5,3,4,2h[16:3],,,1,,,48,,7,5,6,4,5,4,6,5,7bx,,,7bx/8bx,,,1bx/6bx,,
2,4,3,5,4,5,3,4,2h[16:3],,,1,,,38,,7,5,6,4,5,4,6,5,7h[16:3],,,8,,,16,,
2,4,3,5,4,5,3,4,2h[16:3],,,1,,,38,,7,5,6,4,5,4,6,5,8bx,,,1bx/7bx,,,2bx/6bx,,
{2}2x-7[8:1]/6x-3[8:1],4xv1[8:1]*v7[8:1],7x-1[8:1]/8x-4[8:1],1x-5[8:1]/2x-8[8:1],
{4}6h[4:1],8h[4:1],1h[4:1],3,3p6[4:1],6<3[4:1],5b,,
3-1[8:1]/7-5[8:1],,4-7[8:1]/8-3[8:1],,4-8[8:1]/8-4[8:1],,2x/6x,,
2bxh[4:1]/8bx,3bx,4/6h[4:1],7,{8}78,16,{4}2/5w1[8:1],Cf,,
78,4bx/5bx,12,3z7[16:5]/4,7bx,8bx,1bx/8bx,1-6[8:1]/2q6[8:1],
1b/2b,1-6[8:1]/2q6[8:1],1b/2b,28,3h[8:1]/7h[8:1],3h[8:1]/7h[8:1],2h[8:1]/6h[8:1],26,
3qq4[8:3]/5pp4[8:3],,,3x/5x,2qq5[2:1]/6h[4:3],,,,
{8}E6,E5,E4,E3,E2,E1,{4}E8,1h[2:1]/5h[2:1],,,5-3[8:1]/6,
5-7[8:1]/8,2/5-3[8:1],5-7[8:1]/8,1/5-3[8:1],5-7[8:1]/8,2/5-3[8:1],5-7[8:1]/8,15,
2h[4:1]/6h[4:1],,{8}37,46,37,,2h[4:1]/6h[4:1],,,,37,46,37,,
18,2,12,8,78,1,1/7h[1:1],,2^5[8:1],,2bx-6[8:1],,2bx,,1,1,
2bx/8bx,3,45,6,17,6,4/5pp1[2:1],3,{4}2bxh[2:1],,,3x/8x,
{2}4/7h[1:2],B5/B6,B7/B8,B1/B2,
3h[1:1],B3/B4,Ch[2:1],,
{8}1x/2x,3xh[2:1]/8xh[2:1],,,,,56,,7x/8x,1xh[2:1]/6xh[2:1],,,,,34,,
56,47,,34,25,,4-2[8:1]/5-7[8:1],36,4b-8[8:1]/5b-1[8:1],,4b/5b,,27,27,4b/5b,,
5-1[8:1]/7-4[8:1],,5/7^2[8:1],,37,,48,4V26-3[8:3]/8,,6,7,8,1^4[8:1]*^6[8:1],,1,,
4x/6x-1[8:1],,2-6[8:1]/6,,28,,78,1/6h[4:1],,5,47,38,12,18,2b/7b-4[8:1],,
1-5[8:1]/7,,1/8-4[8:1],,2-5[8:1]/8,,26,7h[8:3],,2,2,,{32}3bx/8bxh[8:1],E4,B4,B5,E6,,,,3bx/8bxh[8:1],E4,B4,B5,{16}E6,,
18,,2,1,3,,34,,45,,6,5,7-3[8:1],,8,,2bx/7bx,,,,1bx/5bx,,,,2,4,2,4,3,5,4,6,
{8}5^2[8:1],,8z4[8:3],,1x,,3,3V15-2[8:3],,6,7,8,1^4[8:1]*^6[8:1],,1,,
4x/6x-1[8:1],,2x-6[8:1]/6,,28,,78,1/6h[4:1],,5,4-1[8:1]*-7[8:1],3,4b,,2bx/6bx,,
4-6[8:1]/8h[4:1],,4-2[8:1],,14,8,7,1b^4[8:1]b/6b^1[8:1]b,,1b/6b,,3bx/8bx,,78,1bx/6bx,,
3-8[8:1]/4,2,34,,5/6-1[8:1],7,{4}56,3-7[8:1]b/8,3/5-1[8:1]b,2h[4:1]/5b,1xh[4:7],
7bxh[2:3],,,,,,,17,
{16}2,4,3,5,4,5,3,4,2h[16:3],,,1,,,48,,7,5,6,4,5,4,6,5,7h[16:3],,,8,,,15,,
2,4,3,5,4,5,3,4,2h[16:3],,,1,,,48,,7,5,6,4,5,4,6,5,8bx,,,1bx/7bx,,,2bx/6bx,,
2,4,3,5,4,5,3,4,2h[16:3],,,1,,,38,,7,5,6,4,5,4,6,5,7h[16:3],,,8,,,16,,
2,4,3,5,4,5,3,4,2h[16:3],,,1,,,28,,3bx-8[8:1]b/7bx-4[8:1]b,,,,3b/7b,,,,1b/5b,,,3b/4b,{8},4b/6b,
46,8bx,46,8bx,35,1bx,35,1bx,57,8bx,46,1bx,35,8bx,24,1bx,
46,8bx,46,8bx,35,1bx,35,1bx,46,7bx,35,2bx,{16}1b,8b,1b,8b,{8}1b,,
2-5[8:1],2bx,8-4[8:1],8bx,1-5[8:1],1bx,7-3[8:1],7bx,8-4[8:1],8bx,1-5[8:1],1bx,2-6[8:1],2bx,8,8bx,
{16}7,5,7,5,6,4,6,4,5,3,5,3,4,3,4,3,1,2,1,2,8,3,7,4,5bx/6b,,,1b/8b,,,3b/4b,,
{2}2bh[4:5]/7bh[4:5],,,{8},,,Cf/A1/A2/A3/A4/A5/A6/A7/A8/B1/B2/B3/B4/B5/B6/B7/B8,
{1},,,E
Re:MASTER
最終更新:2026年04月05日 21:56