アットウィキロゴ

Break The Speakers

アーティスト DJ Myosuke

BPM BASIC ADVANCED EXPERT MASTER Re:MASTER
185 5 8+ 12+ 14+ -

EXPERT MASTER Re:MASTER
譜面制作者 ロシェ@ペンギン BELiZHEL -

BASIC


ADVANCED


EXPERT


MASTER

(185){1},,
{16}7h[16:3],,,8,6,,2h[16:3],,,1,3,,45,,6,,78,,18,,2,1,2,,3h[8:1]/8h[8:1],,,4h[8:1]/7h[8:1],,,56,,6h[16:3],,,5,7,,3h[16:3],,,4,2,,18,,7,,56,,3,4,2>5[4:1]*<7[4:1],5,1,,{2},{16}38,,2,1,3,,48,,37,,6,6,4,,37,,15,,7,8,6,,15,,26,,3,3,5,,26,,78,,78,,16,,16,,25,,25,,34,,34,,{12}2,4,3,8,6,7,{24}1,2,3,4,5,6,8,,8,,8,,{2}8bh[4:3],{8},{48}A2,E3,B3,B4,E5,A5f,{4},A7/D7/D8,A2/D2/D3,A4/A5/E4/E6,1b>3[8:1]/8b,
1<6[8:1]/4h[4:5],1-3[8:1],1-6[8:1],1>3[8:1],1<6[8:1],1,15,{16}4/8-4[8:1],,7,5,{4}8<5[8:1],3/8>3[8:1],48,{16}3,4,3,4,{8}2h[4:1]/5,,1x,3/8h[4:1],,7x,{4}16,7h[8:1]/8h[8:1],7h[8:1]/8h[8:1],1h[8:1]/2h[8:1],1h[8:1]/2h[8:1],7h[8:1]/8h[8:1],5h[8:1]/6h[8:1],3h[8:1]/4h[8:1],{16}2,4,2,4,{4}3>8[4:1],8<5[4:1],5>2[4:1],{8}2,1,{4}8h[8:1],1h[8:1]/7h[8:1],45,7-4[8:1]/2-5[8:1],2b-8[8:1]/7b,6-2[8:1],1h[4:1],{8}3,24,3-8[8:1]/5,,7-4[8:1],,2,2,13,48,{4}7-5[8:1]/5-1[8:1],7>6[2:1],,,Cf,{8}16,78,,38,{4}2b-4[8:1]/1b-5[8:1],
2bx-6[8:1]/1bx-7[8:1],2bx-4[8:1]/1bx-5[8:1],1bx/2bx,{8}8bx-2[8:1]/7bx-3[8:1],6b,{4}8bx-4[8:1]/7bx-5[8:1],7bx/8bx,{8}2b/6b,26,4b/8b,{16}48,37,{4}6b-1[8:1]/2b-5[8:1],2b/6b,{16}37,,37,,2b,2,8b,8,{4}1b-6[8:1],1/8-3[8:1],8<5[8:1]/1>4[8:1],18,
3/E5/E6/B5,7/E3/E4/B3,2/E7/E8/B7,{12}5-8[8:1]/1-4[8:1],15,15,{4}15,37,{32}A2,E3,B3,B4,B5,E6,{16}7,7h[4:1],,,8,{4}8z4[4:1],,,26,{8}35,3,46,6,37,,5/8-2[8:1],,
4b/8-6[8:1],,3/8>2[8:1],,{16}3/8<6[8:1],4,{8}5,5/8-2[8:1],5,4/8-6[8:1],4,8>2[8:1]/3,,{16}3/8<6[8:1],4,5,,5/8-2[8:1],,5,,4/8-6[8:1],,4,,3/8>2[8:1],,,,3/8<6[8:1],4,5,,{4}5/8-4[8:1],4/8b,6-3[8:1]/2-7[8:1],26,1-7[8:1]/5,{8}1-3[8:1]/6h[16:1],6h[16:1],1<7[8:1]/6,,{16}1>3[8:1]/6,5,4,,1-7[8:1]/4,,4,,1-3[8:1]/5,,5,,1<7[8:1]/6,,,,1>3[8:1]/6,5,4,,1-7[8:1]/4,,4,,1-3[8:1]/5,,5,,1<7[8:1]/6,,,,1-5[8:1]/6,5,4,,14,,,,{24}1b,8,7,6,5,4,1b,8,7,6,5,4,8b,1,2,3,4,5,8b,1,2,3,4,5,
{1}D7/D8/A7/E7/E8/B6/B7/B8/Cf,,,{4},,,45,{8}3,3,2>6[4:1]/4,,5,,7,,8,8,5/7<3[4:1],,4,,2,,1,1,28,,7,7,68,,{16}24,,,18,,,57,,57,,,,18,,,,2h[16:3],,,3h[16:3],,,5h[16:3],,,6h[16:3],,,{8}8,8-2-5[2:1],,6,{4}6-1[8:1],,48,{16}7h[16:3],,,6h[16:3],,,4h[16:3],,,3h[16:3],,,{8}1,1-7-4[2:1],,3,{4}3-8[8:1],,15,{16}1h[16:3],,,3h[16:3],,,5h[16:3],,,7h[16:3],,,8,,8h[4:1],,,,7,,78,16,2pp5[8:3]/5,,4,,,6,,,8,,8h[16:3],,,6h[16:3],,,4h[16:3],,,2h[16:3],,,{4}1pp6[4:3],B2/B3/E3f,,,,{8}57,57,6,6,35,35,4,4,13,13,2,2,17,17,8,8,12,12,34,34,56,56,78,78,{4}2>5[4:1]/1<6[4:1],,,47,
{16}3b,6,3,6,4,6,4,6,5-8[8:1],6,5,6,5b,,,,2b,7,2,7,1,7,1,7,8-5[8:1],7,8,7,8b,,,,4,6,4,6,2,5,2,5,4,7,4,7,1,5,1,5,{12}2,2,2,6,6,6,{32}1,2,3,4,5,6,7,8,{12}15,5,5,{2}2b/6b,48,1bh[4:1]/2b-4[8:1],5h[4:1]/6-8[8:1],1bx-5[8:1]*-3[8:1],8bx-6[8:1]*-4[8:1],{8}7bh[4:1],,8,2h[4:1],,1,4b/7b,,
{16}25,,3,4,2>5[8:1],,17,,2<7[8:1],6,6-1[8:1],,2,,6,,5,,48,,2,1,3,,6h[8:1],,,5h[8:1]/7h[8:1],,,48,,48,,6,5,7<4[8:1],,28,,7>2[8:1],3,3-8[8:1],,7,,3,,4,,15,,7,8,6,,1h[8:1]/5h[8:1],,,3h[8:1]/7h[8:1],,,48,,4b/8b,,2,1,2<7[8:1],,35,,2>5[8:1],4,4,,2,,1h[4:1],,,,5,,{24}15,48,37,{16}26,,7h[8:1]/8h[8:1],,,3h[8:1]/4h[8:1],,,26,,2b/6b,,8,1,7h[8:1],,5,6,4,5,3,4,{8}2pp5[8:5],13,8,7,6<1[8:1],6,,,4b/8b,,
3x/7x,{16}2,1,3,8,1,8,2,7,8,7,1,,26,,3h[8:1],,8,3h[8:1],,4,3h[8:1],,1,3h[8:1],,5,3,,46,,7b-2[16:1],,,3b-6[16:1],,,8b-5[16:1],,,4b-1[16:1],,,6,,6,,2,,2,,4,3,4,,2h[8:1]/5h[8:1],,,4h[8:1]/7h[8:1],,,18,,2,8,2,8,1,7,1,7,2,5,3,4,E3f,,,,7,1,7,1,8,2,8,2,7,4,6,5,E8f,,,,2,1,3,8,5,6,4,7,3,5,1,8,2,6pp1[2:1],4qq1[16:7],,{4},,,28,
1h[8:1]/7-5[8:1],1h[8:1]/7,2h[8:1]/8-4[8:1],2h[8:1]/8,1v3[8:1]/3,2V46[4:1],1h[8:1],1h[8:1],2-4[8:1]/8h[8:1],2/8h[8:1],1-5[8:1]/7h[8:1],1/7h[8:1],6/8v6[8:1],7V53[4:1],8h[8:1],1b,{8}2-6[8:1],2,1-5[8:1],1,8-4[8:1],8,7-3[8:1],7,6-2[8:1],6,5-1[8:1],5,4,4,3b/7b,,{32}8,7,6,,{16}1,8,1,8,1,8,{32}1,2,3,,{16}8,1,{32}8,7,6,,1,2,3,,{16}5bh,5h,5h,5h,5h,5h,5h,5h,{4}4h/5h,2-5[8:1]/1>5[8:1],
{32}2b<6[8:1]/1b-6[8:1],E2f,,,{8},{32}2b-4[8:1]/1bV35[8:1],E2f,,,{8},{32}1b/2b,E2f,,,{8},3b/7,3/7b,1b/5,,2bh[16:1]/4h[16:1],1h[16:1]/8bh[16:1],5bh[16:1]/7h[16:1],2bh[16:1]/4h[16:1],1/5b,{32}2,3,4,5,{4}1b-6[8:1]*v4[8:1]/6,1b,{16}3b/7b,,2,6,1,5,8,4,{4}7b>2[8:1]/3b<6[8:1],7-4[8:1]/3v8[8:1],37,2b/6b,{24}8b-4[8:1]/1b-5[8:1],27,36,{8}45,1b/8b,,2b/7,,5b/6b,A7f/A8/D7/D8/D1,1b/2b,A3f/A4/D3/D4/D5,5b/6b,,7b/8b,4b/5b,1b/2b,{32}A7f,B7,Cf,B3,{8}A3f,,A1/A4/A5/A8/D1f/D5,,26,48,{32}7b,6,5b,4,3b,2,1b,8,{8}7bxs3b[8:1],,3/A7f,5s1b[8:1],,1/A5f,7bxw3b[8:1],,{1},,,,,
E

Re:MASTER


  • EXノーツやスライドの長さなどの細かいものは正確な動画が出たときに修正します。 -- paru (2026-03-01 18:57:06)
  • {40}→{48}、{24}8,7,6,{16}1,8,1,8,1,8,{24}1,2,3,{16}8,1,{24}8,7,6,1,2,3,→{32}8,7,6,,{16}1,8,1,8,1,8,{32}1,2,3,,{16}8,1,{32}8,7,6,,1,2,3,,の箇所の修正、SLIDEの速度の修正、花火エフェクトの修正を行いました。 -- けもがみ (2026-04-07 00:24:01)
名前:
コメント:

タグ:

+ タグ編集
  • タグ:
最終更新:2026年04月07日 00:24