BASIC
ADVANCED
EXPERT
(168)
{4}
Chf[4:3],,,
7bhx[8:25],,,,,,5,
5h[8:11],,,,,,,
{8}46,4h[4:5]/6,{4},,,,{8},3hx[8:3],{4},
{8}2,2h[8:9],{4},,,Cf,,18,
{8}1b/8b,,12,12,12,,8,7,1,2,3,4,5,,
4b/7b,,25,25,25,,47,47,47,,E7/B6/B5/E5,,A2/E3/B3/B4,,
8b/1b,,87,87,87,,1,2,8,7,6,5,4,,
3x/7x,,{16}2,8,2,8,{16}2bx,,,4bx/6bx,,,3bx/7bxV15[3:2],,{4},,,
4hx[4:13],,,,,,{8},6,
{4}6h[4:6],,,,,,,
56,56,57,57,58,58,{8}41,41,
{4}41,42,42,43,43,45,{8}56,56,
{4}56,57,67,68,7h[4:1]/8h[4:1],,{8}12,12,
{4}3h[4:1],4h[4:1],5h[4:1],6h[4:1],7-1[4:1],,
,1h[4:1],3,{8}24,4/2^7[4:1],,{4},{8}6,6,,
57,,35,,{16}2h[16:3],,,3h[16:3],,,4,,{8},25,,16,6/1-5[4:1],,
{4},8h[4:1],6,{8}75,5/7^2[4:1],,{4},{8}3,3,,
42,,64,,{16}7h[16:3],,,6h[16:3],,,5,,{8},74,,8,/8-4[4:1],,
{4},3,23,{8}12,2/1q6[4:1],,,,8,7,6,
5,4,3,,{16}4h[16:3],,,5h[16:3],,,6,,{8},4h[4:1]/7h[4:1],,,38,3/8h[4:1],,
1,8,7,6,5h[4:1],,4,5,6,7,8,1,2,3,
4,5,,26,,8,17,26,5bx/3bhx[4:17],,,,,,,
{4}5-2-7-4[4:4],,,,,,,
4-8-3-7[4:4],,,,,,,
{8}8h[4:1],,1,1h[4:1],,3,3h[4:1],,5,5h[4:1],,6,47,,
3h[4:1],,1,1h[4:1],,8,8h[4:1],,6,6-1[8:1],,,,,
3bx,3,4,3,3,4,2,2,5,1,1,68,68,,
7,7,8,7,7,8,6,6,1,5,5,24,2b/4b,,
{16}3,4,3,4,3,,25,,25,,,,6,5,6,5,6,,74,,74,,,,7,8,7,8,
7,,2,1,2,1,2,,8,1,8,1,8,1,8b<4pp4b[2:7]*>4qq4b[2:7],,{4},,
,,,,,,,
,,,,,,,
,2b/7b,{16}6,5,6,,{16}3h[8:1]/4h[8:1],,,3h[8:1]/4h[8:1],,,5/2-5[8:1],,{8},6-1[8:1],,5,5,,{4}3-5[8:1]/2-6[8:1],,2-8[8:1]/3-7[8:1],,2-7-1[4:1]/3-6-4[4:1],,,
{4}2bx/3bx,{16}8,1,8,,7h[8:1]/8h[8:1],,,7h[8:1]/8h[8:1],,,1/6-1[8:1],,{8},2-5[8:1],,8,8,,{4}7-1[8:1]/6-2[8:1],,6-4[8:1]/7-3[8:1],,6-3-5[4:1]/7-2-8[4:1],,,
{4}6bx/7bx,{16}6,5,6,,{16}3h[8:1]/4h[8:1],,,3h[8:1]/4h[8:1],,,2-5[8:1]/5-8[8:1],,{8},,,47,47,,2b/6b,,{16}7,1,7,,
{16}2h[8:1]/8h[8:1],,,2h[8:1]/8h[8:1],,,3b/7b<2[4:1],,,,,,{4},,1-5[8:1],8-6[8:1],2-4[8:1],{8}5,5b,,67,67,,18,,
2,2,4,3,6,6,5p3[8:3],7h[8:3],,,,,,,
{16}1h[8:1]/2h[8:1],,,3b/7b,,,,,1h[8:1]/2h[8:1],,,4b/7b,,,,,1h[8:1]/2h[8:1],,,5b/6b,,,67,,67,,,,
{16}8h[8:1]/7h[8:1],,,6b/2b,,,,,8h[8:1]/7h[8:1],,,5b/2b,,,,,8h[8:1]/7h[8:1],,,4b/3b,,,32,,32,,,,
{16}2h[8:1]/4h[8:1],,,4b/6b,,,,,2h[8:1]/4h[8:1],,,2b/8b,,,,,2h[8:1]/4h[8:1],,,6b/8b,,,78,,78,,,,
{16}7h[8:1]/5h[8:1],,,5b/3b,,,,,7h[8:1]/5h[8:1],,,7b/1b,,,,,7h[8:1]/5h[8:1],,,3b/1b,,,2x/6x,,2x/6x,,,,
{16}3h[8:1]/4h[8:1],,,56,,,4,,3h[8:1]/4h[8:1],,,12,,,3,,3h[8:1]/4h[8:1],,,78,,,16,,16,,,,
{16}7h[8:1]/8h[8:1],,,56,,,7,,7h[8:1]/8h[8:1],,,12,,,8,,7h[8:1]/8h[8:1],,,34,,,25,,25,,,,
{16}3,4,3,4,3,4,3,,2,1,2,1,2,1,2,,7,8,7,8,7,8,7,,5b/6b,,,,6,5,6,5,6,5,6,,7,8,7,8,7,8,7,,2,1,2,1,2,1,2,,{8}8b/3b^6[8:1],,,,
{8}7,,81,,12,1-6[8:1]/2-6[8:1],,,,57,5/7pp2[2:1],,4,,,,3h[4:1],,4,5-8[8:1],,2-5[8:1],,7,7b^2[8:1],,,,
{8}3,,45,,56,5-2[8:1]/6-2[8:1],,,,13,1/3pp6[2:1],,8,,,,7h[4:1],,8,1-4[8:1],,6-1[8:1],,3,3,,
{16}2,1,2,1,2,1,2,,7,8,7,8,7,8,7,,{4}1/6-1[8:1],3,48,
{16}7,5,7,5,7,5,7,,2,4,2,4,2,4,2,,{4}1-7[8:1]/5-3[8:1],,1b/5b,
{8}7-4[8:1],7,3-8[8:1],3,6-3[8:1],6,1,,2-5[8:1]b,2,6-1[8:1]b,6,4,,
{16}2,8,2,8,1,7,1,7,2,6,2,6,3,5,3,5,4h[4:1],,,,E5,E6,E7,E8,E1,E2,E3,E4,{4}Ch[4:6],,,{16},,,E8f,,,E2,,,E1f,,,{1}1xw5[8:1]b,,,E
MASTER
(168)
{32}1,2,3,4,5,6,7,8,1,2,3,4,5,6,7,8,{12}1h[8:11],2,3,4,5,6,
{1}7bV15[1:1],{4},,,{1}2-6v4[1:1]/6h[8:7],{4},,,
{1}4p5-8[1:1]/5h[8:7],{4},{8},1,2,3,4h[8:3]/6,,,3,3h[8:3],,,1,,18,7,2,35,2,
{24}1h[4:1]/7,6,5,4,,,{8}8,2,{24}3h[4:1]/7,6,5,4,,,{8}7,2,{24}1/7,6,5,4,,,8/7,6,5,4,,,{4}17,
{24}8h[4:1]/2,3,4,5,,,{8}1,7,{24}6h[4:1]/2,3,4,5,,,{8}2,7,{24}8/2,3,4,5,,,1/2,3,4,5,,,{4}82,
{24}1h[4:1]/7,6,5,4,,,{8}8,2,{24}3h[4:1]/7,6,5,4,,,{8}7,2,{24}1/7,6,5,4,,,8h[4:1]/7,6,5,4,3,2,{4}1w5[8:1],
1b,{16}2,6,4,5-1[8:1],1,,,57,,,2bqq7[8:3]/6bqq3[8:3],,{4},,,
{1}1s5[4:5]/Cf,{4},,,{1}8z4[4:5]/Cf,{4},,,
{4}3h[8:1]/5h[8:1],3h[8:1]/4h[8:1],2h[8:1]/3h[8:1],1h[8:1]/3h[8:1],3h[8:1]/8h[8:1],3h[8:1]/7h[8:1],{8}46,46,
{4}6h[8:1]/4h[8:1],6h[8:1]/5h[8:1],7h[8:1]/6h[8:1],8h[8:1]/6h[8:1],6h[8:1]/1h[8:1],6h[8:1]/2h[8:1],{8}53,53,
{16}26,,3,4,3,,4,5,4,,5,6,5,,6,7,6,,7,8,7,,8,1,8,,27,,
53,,6,5,6,,5,4,5,,4,3,4,,3,2,3,,2,1,2,,38,,7V13[4:1],5,7,5,
{8}7,4,4-7V51[8:3],,48,,{16}8,7,{8}6-2[8:1],,61,8-6[8:1],1,8-4[8:1],5,
8,{16}1,2,{4}3^8[8:1],3/7h[8:3],{16}6,5,{8}4-8[8:1],,6,6,15,{16}2V86[4:1],4,2,4,
{8}2,5,5-2V48[8:3],,51,,{16}1,2,{8}3-7[8:1],,38,1-3[8:1],8,1-5[8:1],4,
1,{16}8,7,{4}6^1[8:1],6/2h[8:3],{16}3,4,{8}5-1[8:1],,3,2,3,{16}4>6[4:1],6,3,5,
{4}2h[4:1],,{4}1-5[8:1]/5,{16}6,7,{8}8^3[8:1],,4V25[4:1],4,5V38[4:1],6,6,
7,{16}7,6,{8}5v2^8[8:3]/1,,4,4,3,3-8[8:1],7-4[8:1],3,7,,15,26,
2-6-1[4:1],6,1-5-2[4:1],5,,7,6,5h[16:3],{16}8,1,6,7,4,5,2,3,8,1,6,7,
48,,2,4,3,,7,5,{8}6,1-4[8:1]/5-8[8:1],26,1b/5b/Cf,{4},,,
{16}6,5,6,5,5,,3,4,3,4,4,,6,5,6,5,5,,3,4,3,4,4,,35,,35,,
4,5,4,5,5,,6,5,6,5,5,,4,5,4,5,5,,6,5,6,5,5,,45,,45,,
6,5,6,5,7,5,6,5,6,5,7,5,6,5,6,5,7,5,6,5,6,5,7,,46,,46,,
3,4,3,4,2,4,3,4,3,4,2,4,3,4,3,4,2,4,{8}3-6[8:1],{2}25,
{16}6,5,6,5,7h[8:1],,5,6,5,6,4h[8:1],,6,5,6,5,7h[8:1],,5,6,5,6,4h[8:1],,7,6,5,4,
3,4,3,4,2h[8:1],,4,3,4,3,5h[8:1],,3,4,3,4,2h[8:1],,4,3,4,3,5h[8:1],,6,7,8,1,
2,1,2,1,3,3,1,2,1,2,8,8,2,1,2,1,3,3,1,2,1,2,8,8,3,2,1,8,
7,8,7,8,6,6,8,7,8,7,{8}1,35,8b>4[8:27]*<4[8:27]b/Cf,{1},,,{4},,,
{16}E2,E1,E8,E7,E6,E5,E4,E3,
{2}1-5[8:1],{16}28,,,B4/B5/E4/E6,,,7V52[4:1]/8V61[4:1],,{2},{8}38,47,
{2}5-3[8:1]/6-2-7[4:1],{8}B3,E5,6<3[4:1],,B3/E4,B5/E5,{16}E8,E1,E2,E3,E4,E5,E6,E7,
{2}8-4[8:1],{16}71,,,B5/B4/E6/E4,,,2V47[4:1]/1V38[4:1],,{2},{8}61,52,
{2}4-6[8:1]/3-7-2[4:1],{8}B6,E5,3>6[4:1],,B6/E6,B4/E5,{16}E2,E1,E8,E7,E6,E5,E4,E3,
{2}1-5[8:1],{16}28,,,B4/B5/E4/E6,,,7V52[4:1]/8V61[4:1],,{2},{8}3-6[8:1]/7-2[8:1],48,
37,,48,,{16}71,,,B5/B4/E6/E4,,,{8}2/8>7[8:3],,,{16}E1,E8/B8,E7/B7,E6/B6,E5/B5,E4/B4,E3/B3,E2/B2,
{4}1x-5[8:1],18,{16}6,5,,3,4,,{4}5/8h[4:1],{16}6,6,7,,2,2,3,,6,6,
5,,3,3,4,,8,2,7,3,5,4,8,,{2}3bh[8:3]/7bh[8:3],{8}E3/B3/B4/Chf[1280:1]/B5/B6/E7,,,
{48}1b/8b,27,36,45,,,,,,{48}1b/8b,27,36,45,,,,,,{8},
{48}2b/1b,38,47,56,,,,,,{48}2b/1b,38,47,56,,,,,,{8},
{48}7b/8b,61,52,43,,,,,,7b/8b,61,52,43,,,,,,{8}26,26,,
{48}1b/7b,26,35,4,,,,,,1b/7b,26,35,4,,,,,,{8},
{48}8b/2b,73,64,5,,,,,,8b/2b,7h/3h,6h/4h,5h,,,,,,{8},
{48}1b/7b,26,35,4,,,,,,1b/7b,26,35,4,,,,,,{8}2h[8:1]/6h[8:1],,,
{48}1b/5b,26,37,48,,,,,,1b/5b,26,37,48,,,,,,{8},
{48}2b/6b,37,48,51,,,,,,2b/6b,37,48,51,,,,,,{8},
{48}1b/5b,26,37,48,,,,,,1b/5b,26,37,48,,,,,,{8}37,37,,
{48}8b/4b,73,62,51,,,,,,8b/4b,73,62,51,,,,,,{8},
{48}7b/3b,62,51,48,,,,,,7b/3b,62,51,4^7[8:1]/8^3[8:1],,,,,,{8},{4}4b/8b-4[8:3],,,
{48}3/5h[4:1],2,1,8,,,,,,8,1,2,3,,,,,,{8}35,
{48}6/4h[4:1],7,8,1,,,,,,1,8,7,6,,,,,,{8}64,
{48}3/5h[4:1],2,1,8,,,,,,8,1,2,3,,,,,,{8}26,26,,
{48}7/4h[4:1],8,1,2,,,,,,2,1,8,7,,,,,,{8}36,
{48}2/5h[4:1],1,8,7,,,,,,7,8,1,2,,,,,,{8}63,
{48}7/4h[4:1],8,1,2z6[16:3],,,,,,2,1,8,7,,,,,,{8},,,
{16}2,4,3,7,5,6,1h[8:1],,7,5,6,2,4,3,8h[8:1],,5,7,3,5,1,7,2,8,3,7,4,6,
2,5,4,5,1,6,5,6,8,6,1,7,2,8,3,1,{32}3,4,5,6,7,8,1,2,{4}3b/7,{16}2-6-1[4:1],4,2,4,
{8}2,5,5-2^4-7[8:3],,15,,{16}1,2,{8}3-7-5[4:1],8,3,1-3[8:1],8,1-5-3[4:1],4,
1,{16}8,7,{4}6^1[8:1],2h[8:3]/6,{16}3,4,{8}5-1[8:1],1,5,3,48,{16}7-3-8[4:1],5,7,5,
{8}7,4,4-7^5-2[8:3],,84,,{16}8,7,{8}6-2-4[4:1],1,6,8-6[8:1],1,8-4-6[4:1],5,
8,{16}1,2,{4}3-7[8:1],8h[4:1]/3,{16}5,4,{4}3-6[8:1]/7-2[8:1],{16}3b/7b,,,4b/8b,,,{4}2b/5b-2[8:1],
1h[4:1],{24}3,4,5,61,2,3,{4}4/8h[4:1],{24}5,4,3,27,6,5,41,,,14,25,36,47,,,74,63,52,{4}4/1-6[8:1],
1/5h[4:1],{24}7,8,1,25,6,7,{4}8/4h[4:1],{24}1,8,7,63,2,1,85,,,58,61,72,83,,,38,27,16,85,7,6,5,4,3,
{4}2b/6h[4:1],{16}2,3,8,1,6,7,4,5,2,3,8,1,6,7,84,5,62,3,48,1,26,7,84,5,
{24}2,6,2,6,2,6,3,7,3,7,3,7,4,8,4,8,4,8,5,1,5,1,5,1,{8}2bh[8:1]/6bh[8:1],,{24}26,15,84,73,62,51,48,7,6,5,4,3,
{4}2bh[16:21]/6,{24}6,7,8,1,,,4h,5h,6h,7h,,,{8}1h,3b,,{16}5b,,,7b,,,5,,4,,
{64}3b,2b,1b,8b,7b,6b,{1}5b,,,,E
Re:MASTER
- けもがみ がMASTER譜面を追加しました。 (2026-03-01 17:58:06)
- Nilmarese(@nilmarese) がEXPART譜面を作成中です。
- keitom がEXPERT譜面を追加しました。(2026-03-27 19:38:44)
最終更新:2026年04月05日 22:17