アットウィキロゴ

ICEBURN

アーティスト Srav3R

BPM BASIC ADVANCED EXPERT MASTER Re:MASTER
190 4 8 11 13+ -

EXPERT MASTER Re:MASTER
譜面制作者 サファ太 カマボコ君 -

BASIC


ADVANCED


EXPERT


MASTER

(190){4}
E6,E5,E4,,B3/B4,,{8}B7,B6,{4}B5,
E4,E5,E6,E7,E8,,{8}B4,B3,{4}B2,
E6,E5,E4,E3,E2/B4,E6,{8}B7,B6,B5,,
{2}3pp6[4:3],,E8,{8}B5,B4,{4}B3,
1>6[8:3],6,7,,8<3[8:3],,2,2,
1>6[8:3],6,7,8,8,1s5[4:1]/7z3[4:1],1bx/7bx,,
2x/6x,{8}1,1h[4:1],,3,3h[4:1],,5,5h[4:1],,7,7h[4:1],,1,,
{16}3,4,3,4,3,,6,5,6,5,6,,3,4,3,4,E3f,,,,,,6,5,{8}7,8,1-5[8:1]/2-5[8:1],,

1/2^7[8:1],,2/4-8[8:1],,1q5[8:1]/4,,7,7h[4:1],,5,,{16}3,4,{8}2-6[8:1],2,5-1[8:1],5,
8w4[8:1],,,,26,2/6-2[8:1],,1-5[8:1],,7,8<4[4:1],,4pp5[4:1],,2,1,
1h[4:1],,4,4,2,6,5,8-3[8:1]*-5[8:1],,8,,6,6,4,35,2,
2h[4:1]/4,,4,5/7h[4:1],,5,2h[4:1]/4-1[8:1],,4,,,{16}4x,6,{8}5b,,7-4[8:1]/8-4[8:1],,
7^2[8:1]/8,,5-1[8:1]/7,,5/8p4[8:1],,2,2h[4:1],,4,,{16}6,5,{8}7-3[8:1],7,4-8[8:1],4,
1w5[8:1],,,,37,3-7[8:1]/7,,8-4[8:1],,2,1>6[4:1],1,,,E1f/B1/B8,,
7,7,57,7,2,2,24,2^5[8:1]*^7[8:1],,,,6x,8,2,35,6,
7-3[8:1],,1-4[8:1],,5,6-8[8:1],,4,3,{16}2,8,2,8,2,8,3,7,3,7,4^1^4[1:2]*>6[1:2],6,4,6,

{4}4b,,,,,,,,
,,,46,37,2v5[8:1]/8v5[8:1],28,,
1h[4:1]/3h[4:1],{8},13,,4,1h[4:1]/3h[4:1],,,1h[4:1]/3h[4:1],,,1-5[8:1]b/3pp5[8:1]b,,1b/3b,,
4x/6x,,68,6h[4:1]/8h[4:1],,,6h[4:1]/8h[4:1],,,5h[4:1]/7h[4:1],,,{16}6,5,7,,{4}8V64^5v7[1:1],
,,2,1V35^4v2[1:1],,,7,7V53^4v6[1:1],
,,1,1,1,2-4[8:1]/8-2[8:1],2^3-6[8:1]/8,,
{16}17,,,35,,,35,,{12}E6,E7,E8,{16}1,,,46,,,57,,,24,{8},1-5[8:1]b/3pp5[8:1]b,,1b/3b,,
6,6,4,5,{12}E4,E3,E2,{16}8,,,35,{8},4/6-2[8:1],,3,{4}4-1[8:1],8V64-2[2:1],3bh[4:3],,,{16}1x,1x,{8}1x,

8-4[8:1],,3-8[8:1]/8,,35,6,1,2,57,8,24,1,6<2[4:1],6,{16}2,3,4,5,
6,,2x,,1x,,8x,,3>7[4:1],,3,,7,6,5,4,3,,7x,,8x,,1x,,24,,,57,,,13,,
8p4[8:1],,17,,8,,3,2,{8}1,1,24,3,57,6,13,4,5-1[8:1]/7,,58,6,
2/4-8[8:1],,14,3,56,7,8,1,{16}A2,E3,E4,A4,A8,E8,E7,A6,A1,E2,E3,A3,A7,E7,E6,A5,
{8}1-5[8:1],,5,6^3[8:1],,3,2h[4:1],,4q8[8:1],,8,1q5[8:1],,7,8h[4:1],,
6-2[8:1],,7,8-4[8:1],,2,1h[4:1],,3q8[8:1],,8,1,1w5[8:1],,1bx,,
7,7,7/E5/B5,7,3,3,3/E5/B4,2h[4:1],,1,2,3,4^1[8:1],5,6,7,
7h[4:1]/8h[4:1],,,5h[4:1]/6h[4:1],,,34,,{16}2,1,3,8,4V28-6[8:3],7,5,6,{4}4,5p4>6[1:3],

{1}Cf,,
,,
{8}7^4[2:1],,,3,,1,1,,2^5[2:1],,,6,,,8,,
8^5[2:1],,,4,,,2,,1h[4:1],,4w8[4:1],35,,,,,

2h[4:3]/6h[4:3],,,,,,,3h[8:1]/7h[8:1],,4h[8:1]/6h[8:1],,3h[4:1]/5h[4:1],,,{16}4x,3,2,5x,
{8}6-1[8:1],,3-8[8:1],,7,7-4[8:1],1,1,2,24,{16}7,,7,5,6-3[8:1],,78,,{4}6x,
2h[4:3],,E4f/B3/B4,5-8[8:1],1-4[8:1]/5,1,2h[4:1]/6,5x-8[8:1],
{8}4,4-1[8:1],,5,5,,{16}E6,E7,E8,E1,{8}3x,3h[4:1],,1<5[4:1],,4,3,2,
1-5[8:1],,6,7-3[8:1],8,3,2,1,1-5[8:1],,5,6,{12}7,5,6,2,4,3,
{16}8-4[8:1],,,,3,,2,,E3,E4,E5,,68,,,56,,,13,,,34,{8},1-5[8:1]b/3pp5[8:1]b,,1b/3b,,
7,7,7,7,{12}7-4[8:1],5,5,7,,,2,2,4,3,3,4,2,2,4,{4}3bh[4:1],
8^5[8:1],4^1[8:1],8-4[8:1],4v1^2-5[2:1]*v7^6-3[2:1],,,,45,

{16}3b,5,4,5,4,5,4,5,4,5,4,5,4,5,4,5,3,5,4,5,4,5,4,5,3,5,3,5,2,4,2,4,
{8}1w5[8:1]b,,1b,,3x/7x,3^8[8:1]/7^4[8:1],,7-3[8:1],,2,1-4[8:1],4,5-1[8:1],6,3>5[8:3],4,
5,,,,1x/2x,,38,38,,5/7v4[8:1],,2,2,5,5,4,
6^8[8:1],,5,3^1[8:1],,4,{4}6-1^3[4:1]*^8q4[4:1],,,3x/5x,1-4[8:1],
1/8-5[8:1],7^2[8:1]/8,47,{8}34,34,,4^1[8:1],5,6,7^4[8:1],8,1-5[8:1]*-6[8:1],2,
,,78,,{16}2,1,{8}3-7[8:1],4,3/5-8[8:1],,1V35[16:3]*V75[16:3]/5,,1,,,46,,
5-1[8:1]/7,7,57,7,2/4-8[8:1],2,24,1h[4:1],,4<8[4:1],,8>4[4:1],,4,,8,
8w4[8:1],,,,2,34,,7,56,4,{16}3,5,3,5,4,6,4,6,5-1^3-8V64[4:7],7,5,7,

{1}5b,,
{8}E4,,E3,,E2,,8,8-4[8:1],,4,3,2,1-5[8:1]b/3pp5[8:1]b,,1b/3b,,
7,7,7/E1f,7,3,3,3/E5f,3,6-1[8:1],6,2-5[8:1],2,8-4[8:1],8,3,3,
2,{16}2,4,3,4,2,,1-5[8:1],,5-1[8:1],,7,,8,,
{24}8x,7,6,5,,,1x,2,3,4,,,7x,6,5,4,3,2,{1}1w5[8:1]b,
,E

Re:MASTER


名前:
コメント:

タグ:

+ タグ編集
  • タグ:
最終更新:2026年03月06日 18:47