アットウィキロゴ

Daredevil Glaive

アーティスト Artifact

BPM BASIC ADVANCED EXPERT MASTER Re:MASTER
185 5 7+ 11+ 14 -

EXPERT MASTER Re:MASTER
譜面制作者 Luxizhel サファ太 & メロンポップ -

BASIC


ADVANCED


EXPERT


MASTER

(185){4}
3bxh[4:1]/4bx-7-5-1[4:11],,E2,E3,E4/B4,,E5,E4,
E3/B2,,B3,B5,4h[2:1],,1h[2:1],,
5-2-4-8[4:11]b,,E8,E7,E6/B5,,E5,E6,
E7/B7,,B6,B4,{2}Ch[2:1],1x,
1bx-4-2-5[4:11]`8bx-5-1-6[4:11]b,,,,
,,,C/D6/E6,
7h[2:1],5h[2:1],{8}4,,4,,3,,12,,
2,2,8,8,1,1,7,7,{16}2,8,2,8,3,7,3,7,4,6,4,6,{4}5-7[8:1]*-8[8:1],
A5f,1bx-3[8:1]b*-4[8:1]b,A1f,8bx,5h[8:1]/7h[8:1],2h[8:1]/4h[8:1],4-1[8:1]/5-8[8:1],D5f/A4/A5,
2bxh[2:3]/7bx,,,,{8}1,1,1,1,1-4[8:1],{16}8x,2x,1x,,,,

3h[16:3]/5b,,,4,2^7[8:1],,5,,6h[4:1],,,,5,,6,,1/7h[16:3],,,8,6,,17,,2-5[8:1]/8,,3,,24,,,,
4b/6h[16:3],,,5,7-4[8:1],,3,,3h[4:1],,,,1,,8,,17,,17,6,5,4,3,2,1x,,1x,,28,,,,
4b/6h[16:3],,,5,7^2[8:1],,3,,3h[4:1],,,,4,,3,,2/4-8[8:1],,,3,4,,1,,5-2[8:1]/7,,6,,57,,,,
1h[16:3]/5b,,,4,2^7[8:1],,6,,6h[4:1],,,,5,,47,,38,,2,1,,7,8,,16,,27,,3h[4:1]/8-4[8:1]b,,,,
8b,,,2,2^7[8:1],,4,,25,,,,56,,47,,3/8-3[8:1],,,4,8,,2x,,4-7[8:1],,1,,24,,,,
4h[16:3]/8x,,,7,7^2[8:1],,5,,47,,,,3x/4x,,25,,16,,7,8,,8,7,1,6-1[8:1],,2-5[8:1],,6,,2,,
{4}8bxh[4:1],D6/A5/A6/E6f/B5/B6,2bxh[4:1],D4/A3/A4/E4f/B3/B4,1bx/6bxh[4:1],D7/D8/A7/E7/E8f/B7,3bxh[4:1]/8bx,D2/D3/A2/E2f/E3/B2,
{8}8x,17,6x,57,3x,24,1^4[8:1]/5^8[8:1],15,{4}1bxV74[4:1]/5bxV38[4:1],,,2b/6b,

4bh[4:1]/8b,{16}1,8,7,6,{8}2/5h[8:1],2,2/5h[8:1],2,2/4h[8:1],2,2/3h[8:1],2,1h[8:1]/2,2,2/8h[8:1],2,
1h[8:1]/2,2,2/3h[8:1],2,18,7,16,2,35,6,24,1,3/7-3[8:1],5,37,,
2bxh[4:1]/4bx,,5bxh[4:1],,{16}8,1,2,3,{4}4h[4:1]/7-2-5-8-4[8:9],,3x,2x,1x-3[8:1],
1b,2x/5x,{16}18,,6,5<2[16:5],,3,4,,{2}2p4[4:1]*p5[4:1],D5f/A4/A5,

{8}2^4[8:1],1,2,1^7[8:1],2,1,5,5,7^5[8:1],8,7,8^2[8:1],7,8,4,4,
2^8[8:1],3,2,4^6[8:1],3,4,2,2,8,1,1,8,1h[4:1]/7-4[8:1]b,,7b,,
3-8[8:1]/8,7,6,,3-8[8:1]/7,6,5,,1/6-1[8:1],2,3,,2/6-1[8:1],3,4,,
48,48,37,37,26,26,15,15,24,3,57,6,45,{24}45,36,27,{4}1x^4[8:1]b/8x^5[8:1]b,

{2}1bpp5V71V36[4:11]/8b,,,,
,,,4xh[4:1]/5xh[4:1],
{4}2h[4:1]/4,3x,5/7h[4:1],6x,3h[4:1]/4,2x,6/7h[4:1],8x>7[4:3]b,
E5f/B4/B5,,,,{8}17,6,18,18,3,12,1/2-4[8:1],,

2b/5b,,{16}6,5,6,5,6,5,7,,7,8,,8,6,,6,4,5,3,,3,4,,25,,25,,14,,
1b/4b,,2,4,2,4,3,5,3,5,1h[8:1],,7,8,,8,7,,2,4,3,,7,5,6,,2,1,2-6[8:1],1,2,1,
2b,,,,7,8,6,,6,4,5h[8:1],,3,4,,4,3,,3,4,2,3h[8:1],,1,1,,28,,28,,17,,
1b/7b,,8,2,8,2,6h[8:1],,4,5,3h[8:1],,4,3,,25,2b-5-7[4:1]b/5b,,,,7,,8,,1,,,,2b/8b,,,,
16,,16,,7,8,,16,,16,,27,,8h[8:1],,5,5b,,,,6,4,,3h[16:3]/5,,,1h[16:3],,,2,,,
38,,47,,6,5,,47,,36,,25,,1,4,1,4,,23,,1,1h[8:1],,E3,E4,E5,,8x,1bx/7bx,,,,
38,,38,,2,1,,38,,38,,27,,1h[8:1],,4,4b,,,,3,5,,4/6h[16:3],,,8h[16:3],,,7,,,
1b/6b,,25,,3,4,,57,,57,,46,,3h[8:1]/5,,4,3,5,4,6,3,7,2,8,1-5[8:1],7,2,6,{4}1b,

4bxh[1:3]/7bx,,,,,,,,
6,6,6,6,5,5,4,4,
3/5h[8:1],5h[8:1],5h[8:1]/E8/B7/B8,5h[8:1],4h[8:1]/6,4h[8:1],4h[8:1]/E2/B1/B2,4h[8:1],
{8}5,6,7,8,1,2,3pp1[4:3],4,{4}5h[4:3],,,,
1bxh[4:3]/6bx,,E5,E3,2/8h[4:3],,A5,D7,
Ch[4:3]/E3/B2/B3,,1,1,{16}2h[16:3]/8,,,1h[16:3],,,8h[16:3],,,7,,,{4}1-6-4-2[4:3]/6,
7bxh[2:1],,,8-3-5-7[4:3],2bxh[2:1],,,1,
{16}2,8,2,8,3,7,4,6,3,5,4,6,2,8,1,7,{4}C/E5f/B4/B5,,3^1[8:1]b/7^1[8:1]b,3/7-4[8:1],

{16}3b/7x,,,2,2-8[8:1],,8,,2^5[8:1]/6,,,,25,6,7,8,1h[16:3],,,5,8-3[8:1],,3,,48,,5,,48,7,6,5,
1^4[8:1]/4,,,6,1,,7,,1^6[8:1]/5,,,3,1,,2,,1h[16:3]/5,,,4,2-8[8:1],,8,,2-5[8:1]/7-2[8:1],,6,,2b/7b-4[8:1],,,,
3b/7x,,,2,2-8[8:1],,8,,2^5[8:1]/6,,,,26,7,8,1,2h[16:3]/6x,,,4,8-6[8:1],,3,,2-8[8:1]/8-4[8:1],,3,,2b/8b,,,,
1b/5h[16:3],,,2,4-8[8:1]b,,35,,4b/6,,,5,5,,17,,{32}1b/7,2,3,4,5,6,7,8,1w5[8:1],2,3,4,5,6,7,8,{4}1bx,3b/7b,
{16}2b/5b,,1,8,2,,15,,37,,1,,4,8,2,6,3,,3,4,1,7,8,5,1-4[8:1]*-6[8:1],,28,,1b,,,,
3b/7b,,8,4,6,,37,,1b/5b,,4,2,{8}6,48,2b-8-4-6[8:3]/6b,,5,6,7w3[8:1]b,,,,
15,15,26,37,4>8[4:1]b/8,57,{16}8,7,6,5,4-8[8:1],,4,,2-5[8:1],,2,,1,,1,,14,38,27,16,
5h[8:1]/8h[8:1],,,,16,,16,,2,5,2,5,1,4,1,4,{24}1bx,2,3,4,5,6,8bx,7,6,5,4,3,8bx,1,2,3,4,5,1bx-5[8:1]b,2,3,4,5,6,
{1}1b/7bx,,E

Re:MASTER


名前:
コメント:

タグ:

+ タグ編集
  • タグ:
最終更新:2026年03月07日 00:57